Скачать через торрент музыку Nektar - A Spoonful Of Time бесплатно без регистрации torrent

Если у вас наблюдаются проблемы со скриншотами, переходом по ссылками, скачиванием торрентов - проблемы в блокировщике рекламы AdBlock. #хорошегоДня!


Статистика раздачи
Размер:  458 MB   |    Зарегистрирован:  4 года 11 месяцев   |    .torrent скачан:  16 раз   |   
Раздают:  1  
   
Загрузка...
 
Автор Сообщение

Galfimbul

avatar Galfimbul


Nektar - A Spoonful Of Time

Жанр: Psychedelic/Space Rock
Год выпуска диска: 2012
Страна: UK
Label: Purple Pyramid/Cleopatra records
Catalog Nr.: CLP 8932
Аудио кодек: FLAC
Тип рипа: image+.cue (test&copy)
Битрейт аудио: lossless
Продолжительность: 69:36
Источник: свой рип

Трэклист:

1. Sirius (2:44)
2. Spirit Of The Radio (4:58)
3. Fly Like An Eagle (4:07)
4. Wish You Were Here (5:56)
5. For The Love Of Money (7:14)
6. Can't Find My Way Home (3:21)
7. 2000 Light Years From Home (4:56)
8. Riders On The Storm (6:40)
9. Blinded By The Light (7:17)
10. Out Of The Blue (4:46)
11. Old Man (3:26)
12. Dream Weaver (3:48)
13. I'm Not In Love (5:56)
14. Africa (4:21)

Total Time: 69:36
- Roye Albrighton / vocals, guitar
- Ron Howden / drums
- Klaus Henatsch / keyboards

guests:
- Steve Howe
- Rick Wakeman
- Nik Turner
- Ginger Baker
- Derek Sherinian
- Mel Collins
- Simon House
- Billy Sheehan
- Rod Argent
- Mark Kelly
- Geoff Downes
- Edgar Froese
- Joakim Svalberg
- Ian Pace
- David Cross
- Jerry Goodman
- Michael Pinella
- Joel Vandroogenbroeck
- Bobby Kimball
- Patrick Moraz
Об альбоме: На сей раз группа порадовала своих поклонников альбомом кавер версий известнейших в мире рок-музыки композиций.
В их записи приняли участие легенды прогрессива. Каверы, да ещё на широко известные песни, это всегда очень и очень на любителя.
Мне понравился альбом, но наверняка найдётся немало недовольных исполнением и т.п. Поэтому, очень прошу воздержаться от всяких "холиваров" в теме.
Exact Audio Copy V1.0 beta 3 from 29. August 2011

EAC extraction logfile from 2. November 2012, 21:37

Nektar / A Spoonful Of Time

Used drive : ASUS DRW-24B1LT Adapter: 4 ID: 0

Read mode : Secure
Utilize accurate stream : Yes
Defeat audio cache : Yes
Make use of C2 pointers : No

Read offset correction : 6
Overread into Lead-In and Lead-Out : No
Fill up missing offset samples with silence : Yes
Delete leading and trailing silent blocks : No
Null samples used in CRC calculations : Yes
Used interface : Native Win32 interface for Win NT & 2000

Used output format : User Defined Encoder
Selected bitrate : 1024 kBit/s
Quality : High
Add ID3 tag : Yes
Command line compressor : C:\Program Files (x86)\FLAC\flac.exe
Additional command line options : -6 -V -T "ARTIST=%artist%" -T "TITLE=%title%" -T "ALBUM=%albumtitle%" -T "DATE=%year%" -T "TRACKNUMBER=%tracknr%" -T "GENRE=%genre%" -T "COMMENT=%comment%" %source% -o %dest%

TOC of the extracted CD

Track | Start | Length | Start sector | End sector
---------------------------------------------------------
1 | 0:00.00 | 2:44.40 | 0 | 12339
2 | 2:44.40 | 4:58.60 | 12340 | 34749
3 | 7:43.25 | 4:07.32 | 34750 | 53306
4 | 11:50.57 | 5:56.18 | 53307 | 80024
5 | 17:47.00 | 7:14.63 | 80025 | 112637
6 | 25:01.63 | 3:21.22 | 112638 | 127734
7 | 28:23.10 | 4:56.15 | 127735 | 149949
8 | 33:19.25 | 6:40.33 | 149950 | 179982
9 | 39:59.58 | 7:17.52 | 179983 | 212809
10 | 47:17.35 | 4:46.07 | 212810 | 234266
11 | 52:03.42 | 3:26.34 | 234267 | 249750
12 | 55:30.01 | 3:48.00 | 249751 | 266850
13 | 59:18.01 | 5:56.09 | 266851 | 293559
14 | 65:14.10 | 4:21.66 | 293560 | 313200

Range status and errors

Selected range

Filename Y:\EAC\wurensh\Nektar\Nektar - A Spoonful Of Time.wav

Peak level 96.6 %
Extraction speed 9.9 X
Range quality 100.0 %
Test CRC FBCEFDAA
Copy CRC FBCEFDAA
Copy OK

No errors occurred

AccurateRip summary

Track 1 not present in database
Track 2 not present in database
Track 3 not present in database
Track 4 not present in database
Track 5 not present in database
Track 6 not present in database
Track 7 not present in database
Track 8 not present in database
Track 9 not present in database
Track 10 not present in database
Track 11 not present in database
Track 12 not present in database
Track 13 not present in database
Track 14 not present in database

None of the tracks are present in the AccurateRip database

End of status report
Коврики 300dpi в комплекте.
Progarchives info

Трекер:  [ 11-Ноя-2012 19:16 ]

  

Скачать .torrent

Размер .torrent файла 19 KB


Размер: 458 MB
Хэш (hash) релиза: aea444eacc175f1455bb4bea469f7312d7c42a7e

Торренты, похожие на Nektar - A Spoonful Of Time скачать торрент

Форум Название Автор Размер S L Добавлен
Зарубежный Rock ·· (Progressive Rock) Nektar - A Spoonful Of Time - 2012, MP3, 320 kbps Galfimbul 197721356189 MB 0 0 1352121060

16:11

5-Ноя-12

Еще никто не оставлял запись к записи скачать торрент Nektar - A Spoonful Of Time . Будь первым!

!Обратная связь