Скачать через торрент музыку Pendragon - Kowtow - 1988 бесплатно без регистрации torrent

Если у вас наблюдаются проблемы со скриншотами, переходом по ссылками, скачиванием торрентов - проблемы в блокировщике рекламы AdBlock. #хорошегоДня!


Статистика раздачи
Размер:  430 MB   |    Зарегистрирован:  5 лет   |    .torrent скачан:  23 раза   |   
Раздают:  1  
   
Загрузка...
 
Автор Сообщение

Galfimbul

avatar Galfimbul



Pendragon / Kowtow


Жанр: Neo-Prog
Год издания: 2012
Издатель (лейбл): Toff Records/Madfish
Номер по каталогу: SMACD990X
Страна: United Kingdom
Аудиокодек: WavPack (*.wv)
Тип рипа: image+.cue
Битрейт аудио: lossless
Продолжительность: 1:04:15
Источник (релизер): nfyz5
Наличие сканов в содержимом раздачи: да
Треклист:
01. Saved By You (4:00)
02. The Mask (4:00)
03. Time For A Change (3:59)
04. I Walk The Rope (4:49)
05. 2 AM (4:16)
06. Total Recall (7:05)
07. The Haunting (10:42)
08. Solid Heart (4:23)
09. Kowtow (8:46)

Bonus Tracks: The Millstream Sessions
10. Time For A Change (3:56)
11. The Mask (3:51)
12. I Walk The Rope (4:27)
Exact Audio Copy V1.0 beta 3 from 29. August 2011

EAC extraction logfile from 31. October 2012, 16:13

Pendragon / Kowtow (2012 remastered edition)

Used drive : ATAPI DVD A DH20A3H Adapter: 4 ID: 0

Read mode : SecureUtilize accurate stream : YesDefeat audio cache : YesMake use of C2 pointers : No

Read offset correction : 6Overread into Lead-In and Lead-Out : NoFill up missing offset samples with silence : YesDelete leading and trailing silent blocks : NoNull samples used in CRC calculations : YesUsed interface : Installed external ASPI interface

Used output format : User Defined EncoderSelected bitrate : 768 kBit/sQuality : HighAdd ID3 tag : YesCommand line compressor : C:\Program Files (x86)\Exact Audio Copy\wavpack-4.60.1\wavpack.exeAdditional command line options : -hm -w "Year=%year%" -w "Genre=%genre%" %source% %dest%

TOC of the extracted CD

Track | Start | Length | Start sector | End sector --------------------------------------------------------- 1 | 0:00.00 | 4:00.14 | 0 | 18013 2 | 4:00.14 | 4:00.35 | 18014 | 36048 3 | 8:00.49 | 3:59.35 | 36049 | 54008 4 | 12:00.09 | 4:49.00 | 54009 | 75683 5 | 16:49.09 | 4:15.70 | 75684 | 94878 6 | 21:05.04 | 7:04.53 | 94879 | 126731 7 | 28:09.57 | 10:42.31 | 126732 | 174912 8 | 38:52.13 | 4:23.02 | 174913 | 194639 9 | 43:15.15 | 8:46.25 | 194640 | 234114 10 | 52:01.40 | 3:55.50 | 234115 | 251789 11 | 55:57.15 | 3:51.12 | 251790 | 269126 12 | 59:48.27 | 4:26.50 | 269127 | 289126

Range status and errors

Selected range

Filename G:\Rips\Pendragon - Kowtow (2012 remastered edition).wav

Peak level 90.1 % Extraction speed 7.8 X Range quality 100.0 % Test CRC 3C6579FD Copy CRC 3C6579FD Copy OK

No errors occurred

AccurateRip summary

Track 1 not present in databaseTrack 2 not present in databaseTrack 3 not present in databaseTrack 4 not present in databaseTrack 5 not present in databaseTrack 6 not present in databaseTrack 7 not present in databaseTrack 8 not present in databaseTrack 9 not present in databaseTrack 10 not present in databaseTrack 11 not present in databaseTrack 12 not present in database

None of the tracks are present in the AccurateRip database

End of status report
REM DATE 1988REM DISCID 980F0F0CREM COMMENT "ExactAudioCopy v1.0b3"PERFORMER "Pendragon"TITLE "Kowtow (2012 remastered edition)"FILE "Pendragon - Kowtow (2012 remastered edition).wv" WAVE TRACK 01 AUDIO TITLE "Saved By You" PERFORMER "Pendragon" INDEX 01 00:00:00 TRACK 02 AUDIO TITLE "The Mask" PERFORMER "Pendragon" INDEX 00 03:57:39 INDEX 01 04:00:14 TRACK 03 AUDIO TITLE "Time For A Change" PERFORMER "Pendragon" INDEX 01 08:00:49 TRACK 04 AUDIO TITLE "I Walk The Rope" PERFORMER "Pendragon" INDEX 00 11:57:15 INDEX 01 12:00:09 TRACK 05 AUDIO TITLE "2 AM" PERFORMER "Pendragon" INDEX 00 16:46:56 INDEX 01 16:49:09 TRACK 06 AUDIO TITLE "Total Recall" PERFORMER "Pendragon" INDEX 00 21:02:27 INDEX 01 21:05:04 TRACK 07 AUDIO TITLE "The Haunting" PERFORMER "Pendragon" INDEX 00 28:04:60 INDEX 01 28:09:57 TRACK 08 AUDIO TITLE "Solid Heart" PERFORMER "Pendragon" INDEX 00 38:46:69 INDEX 01 38:52:13 TRACK 09 AUDIO TITLE "Kowtow" PERFORMER "Pendragon" INDEX 00 43:11:14 INDEX 01 43:15:15 TRACK 10 AUDIO TITLE "Time For A Change" PERFORMER "Pendragon" INDEX 00 51:58:10 INDEX 01 52:01:40 TRACK 11 AUDIO TITLE "The Mask" PERFORMER "Pendragon" INDEX 00 55:55:11 INDEX 01 55:57:15 TRACK 12 AUDIO TITLE "I Walk The Rope" PERFORMER "Pendragon" INDEX 00 59:45:48 INDEX 01 59:48:27
-----------------------

DON'T MODIFY THIS FILE

-----------------------

PERFORMER: auCDtect Task Manager, ver. 1.5.1RC4 build 1.5.1.5Copyright (c) 2008-2010 y-soft. All rights reservedhttp://y-soft.org

ANALYZER: auCDtect: CD records authenticity detector, version 0.8.2Copyright (c) 2004 Oleg Berngardt. All rights reserved.Copyright (c) 2004 Alexander Djourik. All rights reserved.

FILE: Pendragon - Kowtow (2012 remastered edition).wv Size: 429176207 Hash: 4DA391B6709CBE42846BEF2BF72009C3 Accuracy: -m0 Conclusion: CDDA 99% Signature: 4F4D506D449FE4B63C4E53C60F9F03C7E9AFDFA7
- Nick Barrett / vocals, guitars
- Pete Gee / bass
- Fudge Smith / drums
- Clive Nolan / keyboards

GUEST:
- Julian Siegal / saxophone


Трекер:  [ 11-Ноя-2012 19:13 ]

  

Скачать .torrent

Размер .torrent файла 18 KB


Размер: 430 MB
Хэш (hash) релиза: 7d4cd8c2b7c9713d4a5aea268c124ea2ff3c9019

Торренты, похожие на Pendragon - Kowtow - 1988 скачать торрент

Форум Название Автор Размер S L Добавлен
Зарубежный Rock ·· (Neo Progressive) Pendragon - Kowtow 1988 [Remastered Edition] - 2012, MP3, 320 kbps Galfimbul 177389434169 MB 0 0 1352121480

16:18

5-Ноя-12

Еще никто не оставлял запись к записи скачать торрент Pendragon - Kowtow - 1988 . Будь первым!

!Обратная связь