Скачать через торрент музыку The Chantels - The Best Of The Chantels - 1990, FLAC бесплатно без регистрации torrent

Если у вас наблюдаются проблемы со скриншотами, переходом по ссылками, скачиванием торрентов - проблемы в блокировщике рекламы AdBlock. #хорошегоДня!


Статистика раздачи
Размер:  210 MB   |    Зарегистрирован:  4 года 9 месяцев   |    .torrent скачан:  8 раз   |   
Раздают:  1  
   
Загрузка...
 
Автор Сообщение

Galfimbul

avatar Galfimbul


The Chantels / The Best Of The Chantels

Жанр: Doo Wop, Rhythm & Blues, Girl Groups
Страна-производитель диска: USA
Год издания диска: 1990
Издатель (лейбл): Rhino Records
Номер по каталогу: R2 70954
Страна: USA
Аудиокодек: FLAC (*.flac)
Тип рипа: image+.cue
Битрейт аудио: lossless
Продолжительность: 44:44
Источник (релизер): Компакт диск из моей коллекции
Наличие сканов в содержимом раздачи: да

Треклист:
01. He's Gone
02. The Plea
03. Maybe
04. I've Lied -- Willie Wilson & The Tunemasters
05. So Real [Originally unissued]
06. Every Night (I Pray)
07. Whoever You Are
08. I Love You So
09. How Could You Call It Off?
10. Prayee
11. Sure Of Love
12. Memories
13. If You Try
14. I Can't Take It (There's Our Song Again)
15. Goodbye To Love
16. Summer's Love -- Richard Barrett with The Chantels
17. Look In My Eyes
18. Well, I Told You
Exact Audio Copy V1.0 beta 1 from 15. November 2010

EAC extraction logfile from 16. October 2011, 21:12

The Chantels / The Best Of The Chantels

Used drive : Optiarc DVD RW AD-7241S Adapter: 5 ID: 0

Read mode : SecureUtilize accurate stream : YesDefeat audio cache : YesMake use of C2 pointers : No

Read offset correction : 48Overread into Lead-In and Lead-Out : NoFill up missing offset samples with silence : YesDelete leading and trailing silent blocks : NoNull samples used in CRC calculations : YesUsed interface : Native Win32 interface for Win NT & 2000

Used output format : User Defined EncoderSelected bitrate : 768 kBit/sQuality : HighAdd ID3 tag : NoCommand line compressor : D:\Program Files (x86)\Exact Audio Copy\FLAC\FLAC.EXEAdditional command line options : -6 -V -T "ARTIST=%a" -T "TITLE=%t" -T "ALBUM=%g" -T "DATE=%y" -T "TRACKNUMBER=%n" -T "GENRE=%m" -T "COMMENT=%e" %j--picture="%i"%j %s -o %d

TOC of the extracted CD

Track | Start | Length | Start sector | End sector --------------------------------------------------------- 1 | 0:00.32 | 2:29.33 | 32 | 11239 2 | 2:29.65 | 2:58.60 | 11240 | 24649 3 | 5:28.50 | 2:55.47 | 24650 | 37821 4 | 8:24.22 | 2:01.15 | 37822 | 46911 5 | 10:25.37 | 2:06.05 | 46912 | 56366 6 | 12:31.42 | 2:07.08 | 56367 | 65899 7 | 14:38.50 | 2:34.00 | 65900 | 77449 8 | 17:12.50 | 2:20.40 | 77450 | 87989 9 | 19:33.15 | 2:42.60 | 87990 | 100199 10 | 22:16.00 | 2:35.27 | 100200 | 111851 11 | 24:51.27 | 2:29.15 | 111852 | 123041 12 | 27:20.42 | 2:18.40 | 123042 | 133431 13 | 29:39.07 | 2:19.55 | 133432 | 143911 14 | 31:58.62 | 2:36.20 | 143912 | 155631 15 | 34:35.07 | 2:35.35 | 155632 | 167291 16 | 37:10.42 | 2:56.28 | 167292 | 180519 17 | 40:06.70 | 2:19.25 | 180520 | 190969 18 | 42:26.20 | 2:25.10 | 190970 | 201854

Range status and errors

Selected range

Filename F:\lossless\The Chantels\1990 - The Best Of The Chantels\The Chantels - The Best Of The Chantels.wav

Peak level 100.0 % Extraction speed 0.2 X Range quality 99.9 % Test CRC D6CED578 Copy CRC D6CED578 Copy OK

No errors occurred

AccurateRip summary

Track 1 accurately ripped (confidence 3) [F6BFCAC0]Track 2 accurately ripped (confidence 3) [BDB6543A]Track 3 accurately ripped (confidence 3) [540BE739]Track 4 accurately ripped (confidence 3) [14F6DFA3]Track 5 accurately ripped (confidence 3) [59A2EB94]Track 6 accurately ripped (confidence 3) [832EF907]Track 7 accurately ripped (confidence 3) [49C0968A]Track 8 accurately ripped (confidence 3) [384106AC]Track 9 accurately ripped (confidence 3) [6B2599D5]Track 10 accurately ripped (confidence 3) [49F5253F]Track 11 accurately ripped (confidence 3) [6A9BBDDF]Track 12 accurately ripped (confidence 3) [E65C0ABB]Track 13 accurately ripped (confidence 3) [34EB8C6D]Track 14 accurately ripped (confidence 3) [AED7DCF2]Track 15 accurately ripped (confidence 3) [24F82497]Track 16 accurately ripped (confidence 3) [79CE921A]Track 17 accurately ripped (confidence 3) [9F197651]Track 18 accurately ripped (confidence 3) [E3CD495F]

All tracks accurately ripped

End of status report
REM GENRE "Doo Wop"REM DATE 1990REM DISCID E20A8312REM COMMENT "ExactAudioCopy v1.0b1"PERFORMER "The Chantels"TITLE "The Best Of The Chantels"FILE "The Chantels - The Best Of The Chantels.flac" WAVE TRACK 01 AUDIO TITLE "He's Gone" PERFORMER "The Chantels" INDEX 00 00:00:00 INDEX 01 00:00:32 TRACK 02 AUDIO TITLE "The Plea" PERFORMER "The Chantels" INDEX 00 02:27:05 INDEX 01 02:29:65 TRACK 03 AUDIO TITLE "Maybe" PERFORMER "The Chantels" INDEX 00 05:26:62 INDEX 01 05:28:50 TRACK 04 AUDIO TITLE "I've Lied" PERFORMER "The Chantels" INDEX 00 08:22:60 INDEX 01 08:24:22 TRACK 05 AUDIO TITLE "So Real [Originally unissued]" PERFORMER "The Chantels" INDEX 00 10:22:22 INDEX 01 10:25:37 TRACK 06 AUDIO TITLE "Every Night (I Pray)" PERFORMER "The Chantels" INDEX 00 12:29:12 INDEX 01 12:31:42 TRACK 07 AUDIO TITLE "Whoever You Are" PERFORMER "The Chantels" INDEX 00 14:35:57 INDEX 01 14:38:50 TRACK 08 AUDIO TITLE "I Love You So" PERFORMER "The Chantels" INDEX 00 17:09:62 INDEX 01 17:12:50 TRACK 09 AUDIO TITLE "How Could You Call It Off?" PERFORMER "The Chantels" INDEX 00 19:30:22 INDEX 01 19:33:15 TRACK 10 AUDIO TITLE "Prayee" PERFORMER "The Chantels" INDEX 00 22:13:10 INDEX 01 22:16:00 TRACK 11 AUDIO TITLE "Sure Of Love" PERFORMER "The Chantels" INDEX 00 24:48:40 INDEX 01 24:51:27 TRACK 12 AUDIO TITLE "Memories" PERFORMER "The Chantels" INDEX 00 27:17:32 INDEX 01 27:20:42 TRACK 13 AUDIO TITLE "If You Try" PERFORMER "The Chantels" INDEX 00 29:36:27 INDEX 01 29:39:07 TRACK 14 AUDIO TITLE "I Can't Take It (There's Our Song Again)" PERFORMER "The Chantels" INDEX 00 31:56:10 INDEX 01 31:58:62 TRACK 15 AUDIO TITLE "Goodbye To Love" PERFORMER "The Chantels" INDEX 00 34:32:27 INDEX 01 34:35:07 TRACK 16 AUDIO TITLE "Summer's Love" PERFORMER "The Chantels" INDEX 00 37:07:62 INDEX 01 37:10:42 TRACK 17 AUDIO TITLE "Look In My Eyes" PERFORMER "The Chantels" INDEX 00 40:04:07 INDEX 01 40:06:70 TRACK 18 AUDIO TITLE "Well, I Told You" PERFORMER "The Chantels" INDEX 00 42:23:57 INDEX 01 42:26:20
Recording Date: 1957-1961.


Трекер:  [ 11-Ноя-2012 19:16 ]

  

Скачать .torrent

Размер .torrent файла 17 KB


Размер: 210 MB
Хэш (hash) релиза: ae7fad87f72037854842f86f6e8c42991199d0f0

Еще никто не оставлял запись к записи скачать торрент The Chantels - The Best Of The Chantels - 1990, FLAC . Будь первым!

!Обратная связь