Скачать через торрент музыку The Crests - The Best Of The Crests Featuring Johnny Maestro - 1990, FLAC бесплатно без регистрации torrent

Если у вас наблюдаются проблемы со скриншотами, переходом по ссылками, скачиванием торрентов - проблемы в блокировщике рекламы AdBlock. #хорошегоДня!


Статистика раздачи
Размер:  285 MB   |    Зарегистрирован:  4 года 11 месяцев   |    .torrent скачан:  11 раз   |   
Раздают:  1  
   
Загрузка...
 
Автор Сообщение

Galfimbul

avatar Galfimbul


The Crests / The Best Of The Crests Featuring Johnny Maestro

Жанр: Doo Wop, Brill Building Pop
Страна-производитель диска: USA
Год издания диска: 1990
Издатель (лейбл): Murray Hill/Rhino Records
Номер по каталогу: R2 70948
Страна: USA
Аудиокодек: FLAC (*.flac)
Тип рипа: image+.cue
Битрейт аудио: lossless
Продолжительность: 43:48
Источник (релизер): Компакт диск из моей коллекции
Наличие сканов в содержимом раздачи: да

Треклист:
01. 16 Candles
02. What A Surprise
03. Trouble In Paradise
04. Gee (But I'd Give The World)
05. Pretty Little Angel
06. Flower Of Love
07. Model Girl
08. The Angels Listened In
09. Six Nights A Week
10. Isn't It Amazing
11. I Thank The Moon
12. A Year Ago Tonight
13. Journey Of Love
14. Step By Step
15. It Must Be Love
16. Young Love [Previously unreleased]
17. Mr. Happiness
18. I Remember (In The Still Of The Night)
Exact Audio Copy V1.0 beta 1 from 15. November 2010

EAC extraction logfile from 15. October 2011, 23:53

The Crests / The Best Of The Crests Featuring Johnny Maestro

Used drive : Optiarc DVD RW AD-7241S Adapter: 5 ID: 0

Read mode : SecureUtilize accurate stream : YesDefeat audio cache : YesMake use of C2 pointers : No

Read offset correction : 48Overread into Lead-In and Lead-Out : NoFill up missing offset samples with silence : YesDelete leading and trailing silent blocks : NoNull samples used in CRC calculations : YesUsed interface : Native Win32 interface for Win NT & 2000

Used output format : User Defined EncoderSelected bitrate : 768 kBit/sQuality : HighAdd ID3 tag : NoCommand line compressor : D:\Program Files (x86)\Exact Audio Copy\FLAC\FLAC.EXEAdditional command line options : -6 -V -T "ARTIST=%a" -T "TITLE=%t" -T "ALBUM=%g" -T "DATE=%y" -T "TRACKNUMBER=%n" -T "GENRE=%m" -T "COMMENT=%e" %j--picture="%i"%j %s -o %d

TOC of the extracted CD

Track | Start | Length | Start sector | End sector --------------------------------------------------------- 1 | 0:00.32 | 2:52.25 | 32 | 12956 2 | 2:52.57 | 2:53.65 | 12957 | 25996 3 | 5:46.47 | 2:26.10 | 25997 | 36956 4 | 8:12.57 | 2:28.68 | 36957 | 48124 5 | 10:41.50 | 2:07.32 | 48125 | 57681 6 | 12:49.07 | 2:27.60 | 57682 | 68766 7 | 15:16.67 | 2:20.10 | 68767 | 79276 8 | 17:37.02 | 2:03.43 | 79277 | 88544 9 | 19:40.45 | 2:50.10 | 88545 | 101304 10 | 22:30.55 | 2:18.60 | 101305 | 111714 11 | 24:49.40 | 2:19.60 | 111715 | 122199 12 | 27:09.25 | 2:25.45 | 122200 | 133119 13 | 29:34.70 | 2:29.45 | 133120 | 144339 14 | 32:04.40 | 2:29.40 | 144340 | 155554 15 | 34:34.05 | 2:23.07 | 155555 | 166286 16 | 36:57.12 | 2:03.53 | 166287 | 175564 17 | 39:00.65 | 2:20.55 | 175565 | 186119 18 | 41:21.45 | 2:36.10 | 186120 | 197829

Range status and errors

Selected range

Filename F:\lossless\The Crests\1990 - The Best Of The Crests Featuring Johnny Maestro\The Crests - The Best Of The Crests Featuring Johnny Maestro.wav

Peak level 100.0 % Extraction speed 0.2 X Range quality 99.9 % Test CRC BCF91053 Copy CRC BCF91053 Copy OK

No errors occurred

AccurateRip summary

Track 1 not present in databaseTrack 2 not present in databaseTrack 3 not present in databaseTrack 4 not present in databaseTrack 5 not present in databaseTrack 6 not present in databaseTrack 7 not present in databaseTrack 8 not present in databaseTrack 9 not present in databaseTrack 10 not present in databaseTrack 11 not present in databaseTrack 12 not present in databaseTrack 13 not present in databaseTrack 14 not present in databaseTrack 15 not present in databaseTrack 16 not present in databaseTrack 17 not present in databaseTrack 18 not present in database

None of the tracks are present in the AccurateRip database

End of status report
REM GENRE "Doo Wop"REM DATE 1990REM DISCID FC0A4D12REM COMMENT "ExactAudioCopy v1.0b1"PERFORMER "The Crests"TITLE "The Best Of The Crests Featuring Johnny Maestro"FILE "The Crests - The Best Of The Crests Featuring Johnny Maestro.flac" WAVE TRACK 01 AUDIO TITLE "16 Candles" PERFORMER "The Crests" INDEX 00 00:00:00 INDEX 01 00:00:32 TRACK 02 AUDIO TITLE "What A Surprise" PERFORMER "The Crests" INDEX 00 02:50:12 INDEX 01 02:52:57 TRACK 03 AUDIO TITLE "Trouble In Paradise" PERFORMER "The Crests" INDEX 00 05:43:44 INDEX 01 05:46:47 TRACK 04 AUDIO TITLE "Gee (But I'd Give The World)" PERFORMER "The Crests" INDEX 00 08:10:14 INDEX 01 08:12:57 TRACK 05 AUDIO TITLE "Pretty Little Angel" PERFORMER "The Crests" INDEX 00 10:38:72 INDEX 01 10:41:50 TRACK 06 AUDIO TITLE "Flower Of Love" PERFORMER "The Crests" INDEX 00 12:46:29 INDEX 01 12:49:07 TRACK 07 AUDIO TITLE "Model Girl" PERFORMER "The Crests" INDEX 00 15:13:74 INDEX 01 15:16:67 TRACK 08 AUDIO TITLE "The Angels Listened In" PERFORMER "The Crests" INDEX 00 17:33:69 INDEX 01 17:37:02 TRACK 09 AUDIO TITLE "Six Nights A Week" PERFORMER "The Crests" INDEX 00 19:38:12 INDEX 01 19:40:45 TRACK 10 AUDIO TITLE "Isn't It Amazing" PERFORMER "The Crests" INDEX 00 22:27:27 INDEX 01 22:30:55 TRACK 11 AUDIO TITLE "I Thank The Moon" PERFORMER "The Crests" INDEX 00 24:46:59 INDEX 01 24:49:40 TRACK 12 AUDIO TITLE "A Year Ago Tonight" PERFORMER "The Crests" INDEX 00 27:06:34 INDEX 01 27:09:25 TRACK 13 AUDIO TITLE "Journey Of Love" PERFORMER "The Crests" INDEX 00 29:31:72 INDEX 01 29:34:70 TRACK 14 AUDIO TITLE "Step By Step" PERFORMER "The Crests" INDEX 00 32:01:42 INDEX 01 32:04:40 TRACK 15 AUDIO TITLE "It Must Be Love" PERFORMER "The Crests" INDEX 00 34:31:29 INDEX 01 34:34:05 TRACK 16 AUDIO TITLE "Young Love [Previously unreleased]" PERFORMER "The Crests" INDEX 00 36:54:19 INDEX 01 36:57:12 TRACK 17 AUDIO TITLE "Mr. Happiness" PERFORMER "The Crests" INDEX 00 38:57:62 INDEX 01 39:00:65 TRACK 18 AUDIO TITLE "I Remember (In The Still Of The Night)" PERFORMER "The Crests" INDEX 00 41:18:47 INDEX 01 41:21:45
Recording Date: 1958-1962.


Трекер:  [ 11-Ноя-2012 19:16 ]

  

Скачать .torrent

Размер .torrent файла 12 KB


Размер: 285 MB
Хэш (hash) релиза: 351a7bbd733a05aa592a6e6e79028758aa98e095

Еще никто не оставлял запись к записи скачать торрент The Crests - The Best Of The Crests Featuring Johnny Maestro - 1990, FLAC . Будь первым!

!Обратная связь