Скачать через торрент музыку The Cleftones - The Best Of The Cleftones - 1990, FLAC бесплатно без регистрации torrent

Если у вас наблюдаются проблемы со скриншотами, переходом по ссылками, скачиванием торрентов - проблемы в блокировщике рекламы AdBlock. #хорошегоДня!


Статистика раздачи
Размер:  225 MB   |    Зарегистрирован:  4 года 9 месяцев   |    .torrent скачан:  14 раз   |   
Раздают:  1  
   
Загрузка...
 
Автор Сообщение

Galfimbul

avatar Galfimbul


The Cleftones / The Best Of The Cleftones

Жанр: Doo Wop, Rhythm & Blues
Страна-производитель диска: USA
Год издания диска: 1990
Издатель (лейбл): Rhino Records
Номер по каталогу: R2 70951
Страна: USA
Аудиокодек: FLAC (*.flac)
Тип рипа: image+.cue
Битрейт аудио: lossless
Продолжительность: 45:50
Источник (релизер): Компакт диск из моей коллекции

Наличие сканов в содержимом раздачи: да
Треклист:
01. You Baby You
02. Little Girl Of Mine
03. You're Driving Me Mad
04. Can't We Be Sweethearts
05. Neki-Hokey
06. Happy Memories
07. String Around My Heart
08. Why You Do Me Like You Do
09. I Like Your Style Of Making Love
10. See You Next Year
11. Lover Boy
12. Beginners At Love
13. She's So Fine
14. Heart And Soul
15. How Do You Feel
16. Please Say You Want Me
17. For Sentimental Reasons
18. Lover Come Back To Me
Exact Audio Copy V1.0 beta 1 from 15. November 2010

EAC extraction logfile from 15. October 2011, 19:19

The Cleftones / The Best Of The Cleftones

Used drive : Optiarc DVD RW AD-7241S Adapter: 5 ID: 0

Read mode : SecureUtilize accurate stream : YesDefeat audio cache : YesMake use of C2 pointers : No

Read offset correction : 48Overread into Lead-In and Lead-Out : NoFill up missing offset samples with silence : YesDelete leading and trailing silent blocks : NoNull samples used in CRC calculations : YesUsed interface : Native Win32 interface for Win NT & 2000

Used output format : User Defined EncoderSelected bitrate : 768 kBit/sQuality : HighAdd ID3 tag : NoCommand line compressor : D:\Program Files (x86)\Exact Audio Copy\FLAC\FLAC.EXEAdditional command line options : -6 -V -T "ARTIST=%a" -T "TITLE=%t" -T "ALBUM=%g" -T "DATE=%y" -T "TRACKNUMBER=%n" -T "GENRE=%m" -T "COMMENT=%e" %j--picture="%i"%j %s -o %d

TOC of the extracted CD

Track | Start | Length | Start sector | End sector --------------------------------------------------------- 1 | 0:00.00 | 2:44.37 | 0 | 12336 2 | 2:44.37 | 3:15.23 | 12337 | 26984 3 | 5:59.60 | 3:05.37 | 26985 | 40896 4 | 9:05.22 | 2:59.65 | 40897 | 54386 5 | 12:05.12 | 2:25.13 | 54387 | 65274 6 | 14:30.25 | 2:54.15 | 65275 | 78339 7 | 17:24.40 | 2:47.05 | 78340 | 90869 8 | 20:11.45 | 2:03.40 | 90870 | 100134 9 | 22:15.10 | 2:36.15 | 100135 | 111849 10 | 24:51.25 | 2:32.67 | 111850 | 123316 11 | 27:24.17 | 2:51.20 | 123317 | 136161 12 | 30:15.37 | 2:13.45 | 136162 | 146181 13 | 32:29.07 | 2:20.40 | 146182 | 156721 14 | 34:49.47 | 1:54.40 | 156722 | 165311 15 | 36:44.12 | 2:00.68 | 165312 | 174379 16 | 38:45.05 | 2:29.65 | 174380 | 185619 17 | 41:14.70 | 2:36.00 | 185620 | 197319 18 | 43:50.70 | 2:07.67 | 197320 | 206911

Range status and errors

Selected range

Filename F:\lossless\The Cleftones\1990 - The Best Of The Cleftones\The Cleftones - The Best Of The Cleftones.wav

Peak level 100.0 % Extraction speed 0.1 X Range quality 99.9 % Test CRC 74E2BD61 Copy CRC 74E2BD61 Copy OK

No errors occurred

AccurateRip summary

Track 1 not present in databaseTrack 2 not present in databaseTrack 3 not present in databaseTrack 4 not present in databaseTrack 5 not present in databaseTrack 6 not present in databaseTrack 7 not present in databaseTrack 8 not present in databaseTrack 9 not present in databaseTrack 10 not present in databaseTrack 11 not present in databaseTrack 12 not present in databaseTrack 13 not present in databaseTrack 14 not present in databaseTrack 15 not present in databaseTrack 16 not present in databaseTrack 17 not present in databaseTrack 18 not present in database

None of the tracks are present in the AccurateRip database

End of status report
REM GENRE "Doo Wop"REM DATE 1990REM DISCID F10AC612REM COMMENT "ExactAudioCopy v1.0b1"PERFORMER "The Cleftones"TITLE "The Best Of The Cleftones"FILE "The Cleftones - The Best Of The Cleftones.flac" WAVE TRACK 01 AUDIO TITLE "You Baby You" PERFORMER "The Cleftones" INDEX 01 00:00:00 TRACK 02 AUDIO TITLE "Little Girl Of Mine" PERFORMER "The Cleftones" INDEX 00 02:37:64 INDEX 01 02:44:37 TRACK 03 AUDIO TITLE "You're Driving Me Mad" PERFORMER "The Cleftones" INDEX 00 05:52:74 INDEX 01 05:59:60 TRACK 04 AUDIO TITLE "Can't We Be Sweethearts" PERFORMER "The Cleftones" INDEX 00 08:59:34 INDEX 01 09:05:22 TRACK 05 AUDIO TITLE "Neki-Hokey" PERFORMER "The Cleftones" INDEX 00 11:58:69 INDEX 01 12:05:12 TRACK 06 AUDIO TITLE "Happy Memories" PERFORMER "The Cleftones" INDEX 00 14:23:69 INDEX 01 14:30:25 TRACK 07 AUDIO TITLE "String Around My Heart" PERFORMER "The Cleftones" INDEX 00 17:18:41 INDEX 01 17:24:40 TRACK 08 AUDIO TITLE "Why You Do Me Like You Do" PERFORMER "The Cleftones" INDEX 00 20:05:34 INDEX 01 20:11:45 TRACK 09 AUDIO TITLE "I Like Your Style Of Making Love" PERFORMER "The Cleftones" INDEX 00 22:09:09 INDEX 01 22:15:10 TRACK 10 AUDIO TITLE "See You Next Year" PERFORMER "The Cleftones" INDEX 00 24:45:01 INDEX 01 24:51:25 TRACK 11 AUDIO TITLE "Lover Boy" PERFORMER "The Cleftones" INDEX 00 27:17:71 INDEX 01 27:24:17 TRACK 12 AUDIO TITLE "Beginners At Love" PERFORMER "The Cleftones" INDEX 00 30:09:46 INDEX 01 30:15:37 TRACK 13 AUDIO TITLE "She's So Fine" PERFORMER "The Cleftones" INDEX 00 32:23:11 INDEX 01 32:29:07 TRACK 14 AUDIO TITLE "Heart And Soul" PERFORMER "The Cleftones" INDEX 00 34:43:71 INDEX 01 34:49:47 TRACK 15 AUDIO TITLE "How Do You Feel" PERFORMER "The Cleftones" INDEX 00 36:38:06 INDEX 01 36:44:12 TRACK 16 AUDIO TITLE "Please Say You Want Me" PERFORMER "The Cleftones" INDEX 00 38:39:41 INDEX 01 38:45:05 TRACK 17 AUDIO TITLE "For Sentimental Reasons" PERFORMER "The Cleftones" INDEX 00 41:09:56 INDEX 01 41:14:70 TRACK 18 AUDIO TITLE "Lover Come Back To Me" PERFORMER "The Cleftones" INDEX 00 43:45:36 INDEX 01 43:50:70
Recording Date: 1955-1962.


Трекер:  [ 11-Ноя-2012 19:16 ]

  

Скачать .torrent

Размер .torrent файла 18 KB


Размер: 225 MB
Хэш (hash) релиза: 0a3ec642b9bf9787ac8d138de45307305f2cdbf7

Еще никто не оставлял запись к записи скачать торрент The Cleftones - The Best Of The Cleftones - 1990, FLAC . Будь первым!

!Обратная связь