Скачать через торрент музыку The Del Vikings - The Best Of The Del Vikings: The Mercury Years - 1996, FLAC бесплатно без регистрации torrent

Если у вас наблюдаются проблемы со скриншотами, переходом по ссылками, скачиванием торрентов - проблемы в блокировщике рекламы AdBlock. #хорошегоДня!


Статистика раздачи
Размер:  215 MB   |    Зарегистрирован:  4 года 9 месяцев   |    .torrent скачан:  36 раз   |   
Раздают:  1  
   
Загрузка...
 
Автор Сообщение

Galfimbul

avatar Galfimbul


The Del Vikings / The Best Of The Del Vikings: The Mercury Years

Жанр: Doo Wop, Rhythm & Blues, Rock & Roll
Страна-производитель диска: USA
Год издания диска: 1996
Издатель (лейбл): PolyGram Records
Номер по каталогу: 314 532 733-2
Страна: USA
Аудиокодек: FLAC (*.flac)
Тип рипа: image+.cue
Битрейт аудио: lossless
Продолжительность: 50:39
Источник (релизер): Компакт диск из моей коллекции
Наличие сканов в содержимом раздачи: да

Треклист:
01. Cool Shake
02. Jitterbug Mary
03. Come Along With Me
04. Somewhere Over The Rainbow
05. The Voodoo Man
06. Can't Wait
07. A Sunday Kind Of Love
08. I'm Sittin' On Top Of The World
09. Oh Baby (I Need Your Kisses)
10. The Big Beat
11. There I Go (Falling In Love Again)
12. I'm Spinning
13. When I Come Home
14. Nobody's Kisses But Yours
15. A Meeting Of The Eyes
16. Friendly Moon
17. Oh Tonight
18. That's Why (I Love You So)
19. You Are Invited
20. The Bells
21. Heaven On Earth
22. Flat Tire
Exact Audio Copy V1.0 beta 1 from 15. November 2010

EAC extraction logfile from 9. October 2011, 16:05

The Del Vikings / The Best Of The Del Vikings: The Mercury Years

Used drive : Optiarc DVD RW AD-7241S Adapter: 5 ID: 0

Read mode : SecureUtilize accurate stream : YesDefeat audio cache : YesMake use of C2 pointers : No

Read offset correction : 48Overread into Lead-In and Lead-Out : NoFill up missing offset samples with silence : YesDelete leading and trailing silent blocks : NoNull samples used in CRC calculations : YesUsed interface : Native Win32 interface for Win NT & 2000

Used output format : User Defined EncoderSelected bitrate : 768 kBit/sQuality : HighAdd ID3 tag : NoCommand line compressor : D:\Program Files (x86)\Exact Audio Copy\FLAC\FLAC.EXEAdditional command line options : -6 -V -T "ARTIST=%a" -T "TITLE=%t" -T "ALBUM=%g" -T "DATE=%y" -T "TRACKNUMBER=%n" -T "GENRE=%m" -T "COMMENT=%e" %j--picture="%i"%j %s -o %d

TOC of the extracted CD

Track | Start | Length | Start sector | End sector --------------------------------------------------------- 1 | 0:00.00 | 2:13.42 | 0 | 10016 2 | 2:13.42 | 1:57.15 | 10017 | 18806 3 | 4:10.57 | 2:00.65 | 18807 | 27871 4 | 6:11.47 | 3:03.28 | 27872 | 41624 5 | 9:15.00 | 1:48.07 | 41625 | 49731 6 | 11:03.07 | 2:29.35 | 49732 | 60941 7 | 13:32.42 | 2:23.18 | 60942 | 71684 8 | 15:55.60 | 2:00.10 | 71685 | 80694 9 | 17:55.70 | 1:52.55 | 80695 | 89149 10 | 19:48.50 | 1:57.65 | 89150 | 97989 11 | 21:46.40 | 2:31.67 | 97990 | 109381 12 | 24:18.32 | 2:05.50 | 109382 | 118806 13 | 26:24.07 | 2:41.58 | 118807 | 130939 14 | 29:05.65 | 2:11.42 | 130940 | 140806 15 | 31:17.32 | 2:07.58 | 140807 | 150389 16 | 33:25.15 | 2:21.35 | 150390 | 160999 17 | 35:46.50 | 2:41.12 | 161000 | 173086 18 | 38:27.62 | 2:01.03 | 173087 | 182164 19 | 40:28.65 | 2:30.02 | 182165 | 193416 20 | 42:58.67 | 2:35.70 | 193417 | 205111 21 | 45:34.62 | 2:43.10 | 205112 | 217346 22 | 48:17.72 | 2:30.43 | 217347 | 228639

Range status and errors

Selected range

Filename F:\lossless\The Del Vikings\1996 - The Best Of The Del Vikings- The Mercury Years\The Del Vikings - The Best Of The Del Vikings- The Mercury Years.wav

Peak level 100.0 % Extraction speed 0.1 X Range quality 100.0 % Test CRC 5B774EC7 Copy CRC 5B774EC7 Copy OK

No errors occurred

AccurateRip summary

Track 1 not present in databaseTrack 2 not present in databaseTrack 3 not present in databaseTrack 4 not present in databaseTrack 5 not present in databaseTrack 6 not present in databaseTrack 7 not present in databaseTrack 8 not present in databaseTrack 9 not present in databaseTrack 10 not present in databaseTrack 11 not present in databaseTrack 12 not present in databaseTrack 13 not present in databaseTrack 14 not present in databaseTrack 15 not present in databaseTrack 16 not present in databaseTrack 17 not present in databaseTrack 18 not present in databaseTrack 19 not present in databaseTrack 20 not present in databaseTrack 21 not present in databaseTrack 22 not present in database

None of the tracks are present in the AccurateRip database

End of status report
REM GENRE "Doo Wop"REM DATE 1996REM DISCID 430BE816REM COMMENT "ExactAudioCopy v1.0b1"PERFORMER "The Del Vikings"TITLE "The Best Of The Del Vikings: The Mercury Years"FILE "The Del Vikings - The Best Of The Del Vikings- The Mercury Years.flac" WAVE TRACK 01 AUDIO TITLE "Cool Shake" PERFORMER "The Del Vikings" INDEX 01 00:00:00 TRACK 02 AUDIO TITLE "Jitterbug Mary" PERFORMER "The Del Vikings" INDEX 00 02:11:60 INDEX 01 02:13:42 TRACK 03 AUDIO TITLE "Come Along With Me" PERFORMER "The Del Vikings" INDEX 00 04:09:00 INDEX 01 04:10:57 TRACK 04 AUDIO TITLE "Somewhere Over The Rainbow" PERFORMER "The Del Vikings" INDEX 00 06:09:65 INDEX 01 06:11:47 TRACK 05 AUDIO TITLE "The Voodoo Man" PERFORMER "The Del Vikings" INDEX 00 09:13:17 INDEX 01 09:15:00 TRACK 06 AUDIO TITLE "Can't Wait" PERFORMER "The Del Vikings" INDEX 00 11:02:12 INDEX 01 11:03:07 TRACK 07 AUDIO TITLE "A Sunday Kind Of Love" PERFORMER "The Del Vikings" INDEX 00 13:30:60 INDEX 01 13:32:42 TRACK 08 AUDIO TITLE "I'm Sittin' On Top Of The World" PERFORMER "The Del Vikings" INDEX 00 15:54:02 INDEX 01 15:55:60 TRACK 09 AUDIO TITLE "Oh Baby (I Need Your Kisses)" PERFORMER "The Del Vikings" INDEX 00 17:54:12 INDEX 01 17:55:70 TRACK 10 AUDIO TITLE "The Big Beat" PERFORMER "The Del Vikings" INDEX 00 19:46:67 INDEX 01 19:48:50 TRACK 11 AUDIO TITLE "There I Go (Falling In Love Again)" PERFORMER "The Del Vikings" INDEX 00 21:44:57 INDEX 01 21:46:40 TRACK 12 AUDIO TITLE "I'm Spinning" PERFORMER "The Del Vikings" INDEX 00 24:16:50 INDEX 01 24:18:32 TRACK 13 AUDIO TITLE "When I Come Home" PERFORMER "The Del Vikings" INDEX 00 26:22:25 INDEX 01 26:24:07 TRACK 14 AUDIO TITLE "Nobody's Kisses But Yours" PERFORMER "The Del Vikings" INDEX 00 29:04:07 INDEX 01 29:05:65 TRACK 15 AUDIO TITLE "A Meeting Of The Eyes" PERFORMER "The Del Vikings" INDEX 00 31:15:50 INDEX 01 31:17:32 TRACK 16 AUDIO TITLE "Friendly Moon" PERFORMER "The Del Vikings" INDEX 00 33:23:32 INDEX 01 33:25:15 TRACK 17 AUDIO TITLE "Oh Tonight" PERFORMER "The Del Vikings" INDEX 00 35:44:67 INDEX 01 35:46:50 TRACK 18 AUDIO TITLE "That's Why (I Love You So)" PERFORMER "The Del Vikings" INDEX 00 38:26:05 INDEX 01 38:27:62 TRACK 19 AUDIO TITLE "You Are Invited" PERFORMER "The Del Vikings" INDEX 00 40:27:07 INDEX 01 40:28:65 TRACK 20 AUDIO TITLE "The Bells" PERFORMER "The Del Vikings" INDEX 00 42:57:10 INDEX 01 42:58:67 TRACK 21 AUDIO TITLE "Heaven On Earth" PERFORMER "The Del Vikings" INDEX 00 45:33:05 INDEX 01 45:34:62 TRACK 22 AUDIO TITLE "Flat Tire" PERFORMER "The Del Vikings" INDEX 00 48:16:15 INDEX 01 48:17:72
Recording Date: 1954-1958.


Трекер:  [ 11-Ноя-2012 19:16 ]

  

Скачать .torrent

Размер .torrent файла 18 KB


Размер: 215 MB
Хэш (hash) релиза: 6a754bf5866ede87e6901a0f0f44f74129e273e4

Еще никто не оставлял запись к записи скачать торрент The Del Vikings - The Best Of The Del Vikings: The Mercury Years - 1996, FLAC . Будь первым!

!Обратная связь