Скачать через торрент музыку The Diamonds - The Best Of The Diamonds: The Mercury Years - 1996, FLAC бесплатно без регистрации torrent

Если у вас наблюдаются проблемы со скриншотами, переходом по ссылками, скачиванием торрентов - проблемы в блокировщике рекламы AdBlock. #хорошегоДня!


Статистика раздачи
Размер:  241 MB   |    Зарегистрирован:  4 года 11 месяцев   |    .torrent скачан:  37 раз   |   
Раздают:  1  
   
Загрузка...
 
Автор Сообщение

Galfimbul

avatar Galfimbul


The Diamonds / The Best Of The Diamonds: The Mercury Years

Жанр: Doo Wop, Rock & Roll
Страна-производитель диска: USA
Год издания диска: 1996
Издатель (лейбл): PolyGram Records
Номер по каталогу: 314 532 734-2
Страна: Canada
Аудиокодек: FLAC (*.flac)
Тип рипа: image+.cue
Битрейт аудио: lossless
Продолжительность: 51:25
Источник (релизер): Компакт диск из моей коллекции
Наличие сканов в содержимом раздачи: да

Треклист:
01. Why Do Fools Fall In Love
02. Church Bells May Ring
03. Cool, Cool Baby
04. Ka-Ding-Dong
05. My Judge And My Jury
06. Ev'ry Minute Of The Day
07. Little Darlin'
08. Zip Zip
09. Don't Say Goodbye
10. Words Of Love
11. Dance With Me
12. Daddy Cool
13. Silhouettes
14. Stroll
15. Walking Along
16. High Sign
17. She Say (Oom Dooby Doom)
18. Batman, Wolfman, Frankenstein Or Dracula
19. Oh! Carol
20. Believe Me
21. Chimes In My Heart
22. One Summer Night
Exact Audio Copy V1.0 beta 1 from 15. November 2010

EAC extraction logfile from 8. October 2011, 13:40

The Diamonds / The Best Of The Diamonds: The Mercury Years

Used drive : Optiarc DVD RW AD-7241S Adapter: 5 ID: 0

Read mode : SecureUtilize accurate stream : YesDefeat audio cache : YesMake use of C2 pointers : No

Read offset correction : 48Overread into Lead-In and Lead-Out : NoFill up missing offset samples with silence : YesDelete leading and trailing silent blocks : NoNull samples used in CRC calculations : YesUsed interface : Native Win32 interface for Win NT & 2000

Used output format : User Defined EncoderSelected bitrate : 768 kBit/sQuality : HighAdd ID3 tag : NoCommand line compressor : D:\Program Files (x86)\Exact Audio Copy\FLAC\FLAC.EXEAdditional command line options : -6 -V -T "ARTIST=%a" -T "TITLE=%t" -T "ALBUM=%g" -T "DATE=%y" -T "TRACKNUMBER=%n" -T "GENRE=%m" -T "COMMENT=%e" %j--picture="%i"%j %s -o %d

TOC of the extracted CD

Track | Start | Length | Start sector | End sector --------------------------------------------------------- 1 | 0:00.00 | 2:27.67 | 0 | 11091 2 | 2:27.67 | 2:21.30 | 11092 | 21696 3 | 4:49.22 | 2:14.40 | 21697 | 31786 4 | 7:03.62 | 2:01.60 | 31787 | 40921 5 | 9:05.47 | 2:24.45 | 40922 | 51766 6 | 11:30.17 | 2:11.10 | 51767 | 61601 7 | 13:41.27 | 2:09.25 | 61602 | 71301 8 | 15:50.52 | 2:06.60 | 71302 | 80811 9 | 17:57.37 | 2:16.25 | 80812 | 91036 10 | 20:13.62 | 2:00.70 | 91037 | 100106 11 | 22:14.57 | 2:41.45 | 100107 | 112226 12 | 24:56.27 | 2:41.35 | 112227 | 124336 13 | 27:37.62 | 2:44.13 | 124337 | 136649 14 | 30:22.00 | 2:30.27 | 136650 | 147926 15 | 32:52.27 | 2:21.30 | 147927 | 158531 16 | 35:13.57 | 2:25.45 | 158532 | 169451 17 | 37:39.27 | 2:09.08 | 169452 | 179134 18 | 39:48.35 | 2:11.67 | 179135 | 189026 19 | 42:00.27 | 2:07.40 | 189027 | 198591 20 | 44:07.67 | 2:30.18 | 198592 | 209859 21 | 46:38.10 | 2:25.22 | 209860 | 220756 22 | 49:03.32 | 2:32.18 | 220757 | 232174

Range status and errors

Selected range

Filename F:\lossless\The Diamonds\1996 - The Best Of The Diamonds- The Mercury Years\The Diamonds - The Best Of The Diamonds- The Mercury Years.wav

Peak level 100.0 % Extraction speed 0.1 X Range quality 100.0 % Test CRC 6191E126 Copy CRC 6191E126 Copy OK

No errors occurred

AccurateRip summary

Track 1 accurately ripped (confidence 2) [267BEC36]Track 2 accurately ripped (confidence 2) [8AECD8C8]Track 3 accurately ripped (confidence 2) [C661674A]Track 4 accurately ripped (confidence 2) [6CC61D43]Track 5 accurately ripped (confidence 2) [11F4996E]Track 6 accurately ripped (confidence 2) [564C55F6]Track 7 accurately ripped (confidence 2) [1344124E]Track 8 accurately ripped (confidence 2) [A58C19E4]Track 9 accurately ripped (confidence 2) [F17D69A0]Track 10 accurately ripped (confidence 2) [D44A308D]Track 11 accurately ripped (confidence 2) [E64364A7]Track 12 accurately ripped (confidence 2) [8A9958D1]Track 13 accurately ripped (confidence 2) [E17C8730]Track 14 accurately ripped (confidence 2) [42BF0CF9]Track 15 accurately ripped (confidence 2) [A99A4B5F]Track 16 accurately ripped (confidence 2) [B4CC1E8E]Track 17 accurately ripped (confidence 2) [B00EFFBD]Track 18 accurately ripped (confidence 2) [D704A295]Track 19 accurately ripped (confidence 2) [CF10576A]Track 20 accurately ripped (confidence 2) [AA4D3918]Track 21 accurately ripped (confidence 2) [5877C768]Track 22 accurately ripped (confidence 2) [5FB45101]

All tracks accurately ripped

End of status report
REM GENRE "Doo Wop"REM DATE 1996REM DISCID 3C0C1716REM COMMENT "ExactAudioCopy v1.0b1"PERFORMER "The Diamonds"TITLE "The Best Of The Diamonds: The Mercury Years"FILE "The Diamonds - The Best Of The Diamonds- The Mercury Years.flac" WAVE TRACK 01 AUDIO TITLE "Why Do Fools Fall In Love" PERFORMER "The Diamonds" INDEX 01 00:00:00 TRACK 02 AUDIO TITLE "The Church Bells May Ring" PERFORMER "The Diamonds" INDEX 00 02:25:10 INDEX 01 02:27:67 TRACK 03 AUDIO TITLE "Cool, Cool Baby" PERFORMER "The Diamonds" INDEX 00 04:46:40 INDEX 01 04:49:22 TRACK 04 AUDIO TITLE "Ka-Ding-Dong" PERFORMER "The Diamonds" INDEX 00 07:01:05 INDEX 01 07:03:62 TRACK 05 AUDIO TITLE "My Judge And My Jury" PERFORMER "The Diamonds" INDEX 00 09:02:65 INDEX 01 09:05:47 TRACK 06 AUDIO TITLE "Ev'ry Minute Of The Day" PERFORMER "The Diamonds" INDEX 00 11:27:35 INDEX 01 11:30:17 TRACK 07 AUDIO TITLE "Little Darlin'" PERFORMER "The Diamonds" INDEX 00 13:38:45 INDEX 01 13:41:27 TRACK 08 AUDIO TITLE "Zip Zip" PERFORMER "The Diamonds" INDEX 00 15:47:70 INDEX 01 15:50:52 TRACK 09 AUDIO TITLE "Don't Say Goodbye" PERFORMER "The Diamonds" INDEX 00 17:54:55 INDEX 01 17:57:37 TRACK 10 AUDIO TITLE "Words Of Love" PERFORMER "The Diamonds" INDEX 00 20:11:05 INDEX 01 20:13:62 TRACK 11 AUDIO TITLE "Dance With Me" PERFORMER "The Diamonds" INDEX 00 22:12:00 INDEX 01 22:14:57 TRACK 12 AUDIO TITLE "Daddy Cool" PERFORMER "The Diamonds" INDEX 00 24:53:45 INDEX 01 24:56:27 TRACK 13 AUDIO TITLE "Silhouettes" PERFORMER "The Diamonds" INDEX 00 27:35:05 INDEX 01 27:37:62 TRACK 14 AUDIO TITLE "The Stroll" PERFORMER "The Diamonds" INDEX 00 30:19:17 INDEX 01 30:22:00 TRACK 15 AUDIO TITLE "Walking Along" PERFORMER "The Diamonds" INDEX 00 32:49:45 INDEX 01 32:52:27 TRACK 16 AUDIO TITLE "High Sign" PERFORMER "The Diamonds" INDEX 00 35:11:00 INDEX 01 35:13:57 TRACK 17 AUDIO TITLE "She Say (Oom Dooby Doom)" PERFORMER "The Diamonds" INDEX 00 37:36:45 INDEX 01 37:39:27 TRACK 18 AUDIO TITLE "Batman, Woflman, Frankenstein Or Dracula" PERFORMER "The Diamonds" INDEX 00 39:45:52 INDEX 01 39:48:35 TRACK 19 AUDIO TITLE "Oh! Carol" PERFORMER "The Diamonds" INDEX 00 41:57:45 INDEX 01 42:00:27 TRACK 20 AUDIO TITLE "Believe Me" PERFORMER "The Diamonds" INDEX 00 44:05:10 INDEX 01 44:07:67 TRACK 21 AUDIO TITLE "Chimes In My Heart" PERFORMER "The Diamonds" INDEX 00 46:35:27 INDEX 01 46:38:10 TRACK 22 AUDIO TITLE "One Summer Night" PERFORMER "The Diamonds" INDEX 00 49:00:50 INDEX 01 49:03:32
Recording Date: 1956-1961.


Трекер:  [ 11-Ноя-2012 19:16 ]

  

Скачать .torrent

Размер .torrent файла 20 KB


Размер: 241 MB
Хэш (hash) релиза: e648bc2c6ba0c3542d18ff43e37986fbb39ef8ca

Еще никто не оставлял запись к записи скачать торрент The Diamonds - The Best Of The Diamonds: The Mercury Years - 1996, FLAC . Будь первым!

!Обратная связь