Скачать через торрент музыку Pat Boone - More Greatest Hits - 1994, FLAC бесплатно без регистрации torrent

Если у вас наблюдаются проблемы со скриншотами, переходом по ссылками, скачиванием торрентов - проблемы в блокировщике рекламы AdBlock. #хорошегоДня!


Статистика раздачи
Размер:  266 MB   |    Зарегистрирован:  4 года 9 месяцев   |    .torrent скачан:  15 раз   |   
Раздают:  1  
   
Загрузка...
 
Автор Сообщение

Galfimbul

avatar Galfimbul


Pat Boone / More Greatest Hits

Жанр: Vocal Pop, Rock & Roll, Teen Idols
Страна-производитель диска: USA
Год издания диска: 1994
Издатель (лейбл): Varèse Sarabande Records
Номер по каталогу: VSD-5522
Страна: USA
Аудиокодек: FLAC (*.flac)
Тип рипа: image+.cue
Битрейт аудио: lossless
Продолжительность: 46:02
Источник (релизер): Компакт диск из моей коллекции
Наличие сканов в содержимом раздачи: да

Треклист:
01. There's A Gold Mine In The Sky
02. For My Good Fortune
03. Gee, But It's Lonely
04. I'll Remember Tonight
05. With The Wind And The Rain In Your Hair
06. For A Penny
07. (Welcome) New Lovers
08. Twixt Twelve And Twenty
09. Fools Hall Of Fame
10. Walking The Floor Over You
11. There's A Moon Out Tonight
12. The Exodus Song (This Land Is Mine)
13. I'll See You In My Dreams
14. Big Cold Wind
15. Johnny Will
16. Ten Lonely Guys
17. Beach Girl
18. July, You're A Woman
Exact Audio Copy V1.0 beta 1 from 15. November 2010

EAC extraction logfile from 11. September 2011, 1:03

Pat Boone / More Greatest Hits

Used drive : Optiarc DVD RW AD-7241S Adapter: 5 ID: 0

Read mode : SecureUtilize accurate stream : YesDefeat audio cache : YesMake use of C2 pointers : No

Read offset correction : 48Overread into Lead-In and Lead-Out : NoFill up missing offset samples with silence : YesDelete leading and trailing silent blocks : NoNull samples used in CRC calculations : YesUsed interface : Native Win32 interface for Win NT & 2000

Used output format : User Defined EncoderSelected bitrate : 768 kBit/sQuality : HighAdd ID3 tag : NoCommand line compressor : D:\Program Files (x86)\Exact Audio Copy\FLAC\FLAC.EXEAdditional command line options : -6 -V -T "ARTIST=%a" -T "TITLE=%t" -T "ALBUM=%g" -T "DATE=%y" -T "TRACKNUMBER=%n" -T "GENRE=%m" -T "COMMENT=%e" %j--picture="%i"%j %s -o %d

TOC of the extracted CD

Track | Start | Length | Start sector | End sector --------------------------------------------------------- 1 | 0:00.00 | 2:18.30 | 0 | 10379 2 | 2:18.30 | 2:09.72 | 10380 | 20126 3 | 4:28.27 | 2:11.55 | 20127 | 30006 4 | 6:40.07 | 2:29.33 | 30007 | 41214 5 | 9:09.40 | 2:33.62 | 41215 | 52751 6 | 11:43.27 | 2:18.65 | 52752 | 63166 7 | 14:02.17 | 2:32.20 | 63167 | 74586 8 | 16:34.37 | 2:17.63 | 74587 | 84924 9 | 18:52.25 | 2:45.50 | 84925 | 97349 10 | 21:38.00 | 2:23.45 | 97350 | 108119 11 | 24:01.45 | 2:15.45 | 108120 | 118289 12 | 26:17.15 | 3:08.40 | 118290 | 132429 13 | 29:25.55 | 2:45.35 | 132430 | 144839 14 | 32:11.15 | 2:12.07 | 144840 | 154746 15 | 34:23.22 | 2:27.00 | 154747 | 165771 16 | 36:50.22 | 3:44.13 | 165772 | 182584 17 | 40:34.35 | 2:34.55 | 182585 | 194189 18 | 43:09.15 | 3:01.42 | 194190 | 207806

Range status and errors

Selected range

Filename F:\lossless\Pat Boone\1994 - More Greatest Hits\Pat Boone - More Greatest Hits.wav

Peak level 100.0 % Extraction speed 0.2 X Range quality 99.9 % Test CRC 7095C44A Copy CRC 7095C44A Copy OK

No errors occurred

AccurateRip summary

Track 1 accurately ripped (confidence 1) [F377AF70]Track 2 accurately ripped (confidence 2) [C121A1AE]Track 3 accurately ripped (confidence 2) [5CD9A478]Track 4 accurately ripped (confidence 2) [7478D388]Track 5 accurately ripped (confidence 2) [6D0B1F95]Track 6 accurately ripped (confidence 2) [5BE6EE39]Track 7 accurately ripped (confidence 2) [808E05ED]Track 8 accurately ripped (confidence 2) [753F23F3]Track 9 accurately ripped (confidence 2) [F1573E0A]Track 10 accurately ripped (confidence 1) [2D3D605D]Track 11 accurately ripped (confidence 2) [4D0BC79D]Track 12 accurately ripped (confidence 2) [64081E9C]Track 13 accurately ripped (confidence 2) [3DDAD017]Track 14 accurately ripped (confidence 1) [366021D3]Track 15 accurately ripped (confidence 1) [AFAD2E9C]Track 16 accurately ripped (confidence 2) [EFCA39A2]Track 17 accurately ripped (confidence 2) [BAC42A47]Track 18 accurately ripped (confidence 2) [695C8EA6]

All tracks accurately ripped

End of status report
REM GENRE "Early Pop/Rock"REM DATE 1994REM DISCID DD0AD212REM COMMENT "ExactAudioCopy v1.0b1"PERFORMER "Pat Boone"TITLE "More Greatest Hits"FILE "Pat Boone - More Greatest Hits.flac" WAVE TRACK 01 AUDIO TITLE "There's A Gold Mine In The Sky" PERFORMER "Pat Boone" INDEX 01 00:00:00 TRACK 02 AUDIO TITLE "For My Good Fortune" PERFORMER "Pat Boone" INDEX 00 02:16:20 INDEX 01 02:18:30 TRACK 03 AUDIO TITLE "Gee, But It's Lonely" PERFORMER "Pat Boone" INDEX 00 04:26:42 INDEX 01 04:28:27 TRACK 04 AUDIO TITLE "I'll Remember Tonight" PERFORMER "Pat Boone" INDEX 00 06:37:47 INDEX 01 06:40:07 TRACK 05 AUDIO TITLE "With The Wind And The Rain In Your Hair" PERFORMER "Pat Boone" INDEX 00 09:07:21 INDEX 01 09:09:40 TRACK 06 AUDIO TITLE "For A Penny" PERFORMER "Pat Boone" INDEX 00 11:40:67 INDEX 01 11:43:27 TRACK 07 AUDIO TITLE "(Welcome) New Lovers" PERFORMER "Pat Boone" INDEX 00 13:59:67 INDEX 01 14:02:17 TRACK 08 AUDIO TITLE "Twixt Twelve And Twenty" PERFORMER "Pat Boone" INDEX 00 16:31:67 INDEX 01 16:34:37 TRACK 09 AUDIO TITLE "Fools Hall Of Fame" PERFORMER "Pat Boone" INDEX 00 18:49:42 INDEX 01 18:52:25 TRACK 10 AUDIO TITLE "Walking The Floor Over You" PERFORMER "Pat Boone" INDEX 00 21:35:27 INDEX 01 21:38:00 TRACK 11 AUDIO TITLE "There's A Moon Out Tonight" PERFORMER "Pat Boone" INDEX 00 23:59:32 INDEX 01 24:01:45 TRACK 12 AUDIO TITLE "The Exodus Song (This Land Is Mine)" PERFORMER "Pat Boone" INDEX 00 26:14:67 INDEX 01 26:17:15 TRACK 13 AUDIO TITLE "I'll See You In My Dreams" PERFORMER "Pat Boone" INDEX 00 29:23:00 INDEX 01 29:25:55 TRACK 14 AUDIO TITLE "Big Cold Wind" PERFORMER "Pat Boone" INDEX 00 32:09:32 INDEX 01 32:11:15 TRACK 15 AUDIO TITLE "Johnny Will" PERFORMER "Pat Boone" INDEX 00 34:20:50 INDEX 01 34:23:22 TRACK 16 AUDIO TITLE "Ten Lonely Guys" PERFORMER "Pat Boone" INDEX 00 36:48:27 INDEX 01 36:50:22 TRACK 17 AUDIO TITLE "Beach Girl" PERFORMER "Pat Boone" INDEX 00 40:31:40 INDEX 01 40:34:35 TRACK 18 AUDIO TITLE "July, You're A Woman" PERFORMER "Pat Boone" INDEX 00 43:07:35 INDEX 01 43:09:15
Recording Date: 1957-1969.


Трекер:  [ 11-Ноя-2012 19:16 ]

  

Скачать .torrent

Размер .torrent файла 11 KB


Размер: 266 MB
Хэш (hash) релиза: 6a978708297f45c1b4d1838b5c468c0d68ec914a

Еще никто не оставлял запись к записи скачать торрент Pat Boone - More Greatest Hits - 1994, FLAC . Будь первым!

!Обратная связь