Скачать через торрент музыку The Crew Cuts - The Best Of The Crew Cuts: The Mercury Years - 1996, FLAC бесплатно без регистрации torrent

Если у вас наблюдаются проблемы со скриншотами, переходом по ссылками, скачиванием торрентов - проблемы в блокировщике рекламы AdBlock. #хорошегоДня!


Статистика раздачи
Размер:  221 MB   |    Зарегистрирован:  4 года 9 месяцев   |    .torrent скачан:  24 раза   |   
Раздают:  1  
   
Загрузка...
 
Автор Сообщение

Galfimbul

avatar Galfimbul


The Crew Cuts / The Best Of The Crew Cuts: The Mercury Years

Жанр: Vocal Pop, Doo Wop
Страна-производитель диска: USA
Год издания диска: 1996
Издатель (лейбл): PolyGram Records
Номер по каталогу: 314 532 731-2
Страна: Canada
Аудиокодек: FLAC (*.flac)
Тип рипа: image+.cue
Битрейт аудио: lossless
Продолжительность: 54:13
Источник (релизер): Компакт диск из моей коллекции
Наличие сканов в содержимом раздачи: да

Треклист:
01. Crazy 'Bout Ya Baby
02. Sh-Boom (Life Could Be A Dream)
03. I Spoke Too Soon
04. Oop-Shoop
05. Do Me Good Baby
06. Ko Ko Mo (I Love You So)
07. Earth Angel (Will You Be Mine)
08. Chop Chop Boom
09. This Is My Story
10. Two Hearts, Two Kisses (Make One Love)
11. Don't Be Angry
12. Mostly Martha
13. A Story Untold
14. Angels In The Sky
15. Gum Drop
16. Seven Days
17. Honey Hair, Sugar Lips, Eyes Of Blue
18. Out Of The Picture
19. Tell Me Why
20. Young Love
21. Be My Only Love
22. I Like It Like That
Exact Audio Copy V1.0 beta 1 from 15. November 2010

EAC extraction logfile from 5. October 2011, 1:14

The Crew Cuts / The Best Of The Crew Cuts: The Mercury Years

Used drive : Optiarc DVD RW AD-7241S Adapter: 5 ID: 0

Read mode : SecureUtilize accurate stream : YesDefeat audio cache : YesMake use of C2 pointers : No

Read offset correction : 48Overread into Lead-In and Lead-Out : NoFill up missing offset samples with silence : YesDelete leading and trailing silent blocks : NoNull samples used in CRC calculations : YesUsed interface : Native Win32 interface for Win NT & 2000

Used output format : User Defined EncoderSelected bitrate : 768 kBit/sQuality : HighAdd ID3 tag : NoCommand line compressor : D:\Program Files (x86)\Exact Audio Copy\FLAC\FLAC.EXEAdditional command line options : -6 -V -T "ARTIST=%a" -T "TITLE=%t" -T "ALBUM=%g" -T "DATE=%y" -T "TRACKNUMBER=%n" -T "GENRE=%m" -T "COMMENT=%e" %j--picture="%i"%j %s -o %d

TOC of the extracted CD

Track | Start | Length | Start sector | End sector --------------------------------------------------------- 1 | 0:00.00 | 2:25.37 | 0 | 10911 2 | 2:25.37 | 2:48.68 | 10912 | 23579 3 | 5:14.30 | 2:18.10 | 23580 | 33939 4 | 7:32.40 | 2:23.40 | 33940 | 44704 5 | 9:56.05 | 2:26.42 | 44705 | 55696 6 | 12:22.47 | 2:38.40 | 55697 | 67586 7 | 15:01.12 | 2:55.43 | 67587 | 80754 8 | 17:56.55 | 2:08.47 | 80755 | 90401 9 | 20:05.27 | 2:52.10 | 90402 | 103311 10 | 22:57.37 | 2:40.15 | 103312 | 115326 11 | 25:37.52 | 2:10.38 | 115327 | 125114 12 | 27:48.15 | 2:41.22 | 125115 | 137211 13 | 30:29.37 | 2:27.03 | 137212 | 148239 14 | 32:56.40 | 2:25.15 | 148240 | 159129 15 | 35:21.55 | 2:38.72 | 159130 | 171051 16 | 38:00.52 | 2:46.15 | 171052 | 183516 17 | 40:46.67 | 2:06.33 | 183517 | 192999 18 | 42:53.25 | 2:26.65 | 193000 | 204014 19 | 45:20.15 | 2:11.50 | 204015 | 213889 20 | 47:31.65 | 2:30.70 | 213890 | 225209 21 | 50:02.60 | 2:05.67 | 225210 | 234651 22 | 52:08.52 | 2:14.13 | 234652 | 244714

Range status and errors

Selected range

Filename F:\lossless\The Crew Cuts\1996 - The Best Of The Crew Cuts- The Mercury Years\The Crew Cuts - The Best Of The Crew Cuts- The Mercury Years.wav

Peak level 100.0 % Extraction speed 0.1 X Range quality 99.9 % Test CRC 72450B74 Copy CRC 72450B74 Copy OK

No errors occurred

AccurateRip summary

Track 1 accurately ripped (confidence 2) [09624408]Track 2 accurately ripped (confidence 2) [8B357DA5]Track 3 accurately ripped (confidence 2) [8427D887]Track 4 accurately ripped (confidence 2) [67C1981D]Track 5 accurately ripped (confidence 2) [008683B9]Track 6 accurately ripped (confidence 2) [D22AA4BF]Track 7 accurately ripped (confidence 2) [D674DBE5]Track 8 accurately ripped (confidence 2) [C0074370]Track 9 accurately ripped (confidence 2) [7BA493CD]Track 10 accurately ripped (confidence 2) [720E18A7]Track 11 accurately ripped (confidence 2) [E93A311D]Track 12 accurately ripped (confidence 2) [D442E263]Track 13 accurately ripped (confidence 2) [4226A7BB]Track 14 accurately ripped (confidence 2) [5E205554]Track 15 accurately ripped (confidence 2) [8D088454]Track 16 accurately ripped (confidence 2) [275FC8A5]Track 17 accurately ripped (confidence 2) [986910DD]Track 18 accurately ripped (confidence 2) [B7F5AE74]Track 19 accurately ripped (confidence 2) [7E24B7F4]Track 20 accurately ripped (confidence 2) [CC9AEAD2]Track 21 accurately ripped (confidence 2) [94EE8FE1]Track 22 accurately ripped (confidence 2) [1FA6A316]

All tracks accurately ripped

End of status report
REM GENRE "Vocal Pop"REM DATE 1996REM DISCID 330CBE16REM COMMENT "ExactAudioCopy v1.0b1"PERFORMER "The Crew Cuts"TITLE "The Best Of The Crew Cuts: The Mercury Years"FILE "The Crew Cuts - The Best Of The Crew Cuts- The Mercury Years.flac" WAVE TRACK 01 AUDIO TITLE "Crazy 'Bout Ya Baby" PERFORMER "The Crew Cuts" INDEX 01 00:00:00 TRACK 02 AUDIO TITLE "Sh-Boom (Life Could Be A Dream)" PERFORMER "The Crew Cuts" INDEX 00 02:22:55 INDEX 01 02:25:37 TRACK 03 AUDIO TITLE "I Spoke Too Soon" PERFORMER "The Crew Cuts" INDEX 00 05:11:47 INDEX 01 05:14:30 TRACK 04 AUDIO TITLE "Oop-Shoop" PERFORMER "The Crew Cuts" INDEX 00 07:29:57 INDEX 01 07:32:40 TRACK 05 AUDIO TITLE "Do Me Good Baby" PERFORMER "The Crew Cuts" INDEX 00 09:53:22 INDEX 01 09:56:05 TRACK 06 AUDIO TITLE "Ko Ko Mo (I Love You So)" PERFORMER "The Crew Cuts" INDEX 00 12:19:65 INDEX 01 12:22:47 TRACK 07 AUDIO TITLE "Earth Angel (Will You Be Mine)" PERFORMER "The Crew Cuts" INDEX 00 14:58:30 INDEX 01 15:01:12 TRACK 08 AUDIO TITLE "Chop Chop Boom" PERFORMER "The Crew Cuts" INDEX 00 17:53:72 INDEX 01 17:56:55 TRACK 09 AUDIO TITLE "This Is My Story" PERFORMER "The Crew Cuts" INDEX 00 20:02:45 INDEX 01 20:05:27 TRACK 10 AUDIO TITLE "Two Hearts, Two Kisses (Make One Love)" PERFORMER "The Crew Cuts" INDEX 00 22:54:55 INDEX 01 22:57:37 TRACK 11 AUDIO TITLE "Don't Be Angry" PERFORMER "The Crew Cuts" INDEX 00 25:34:70 INDEX 01 25:37:52 TRACK 12 AUDIO TITLE "Mostly Martha" PERFORMER "The Crew Cuts" INDEX 00 27:45:32 INDEX 01 27:48:15 TRACK 13 AUDIO TITLE "A Story Untold" PERFORMER "The Crew Cuts" INDEX 00 30:26:55 INDEX 01 30:29:37 TRACK 14 AUDIO TITLE "Angels In The Sky" PERFORMER "The Crew Cuts" INDEX 00 32:53:57 INDEX 01 32:56:40 TRACK 15 AUDIO TITLE "Gum Drop" PERFORMER "The Crew Cuts" INDEX 00 35:18:72 INDEX 01 35:21:55 TRACK 16 AUDIO TITLE "Seven Days" PERFORMER "The Crew Cuts" INDEX 00 37:57:70 INDEX 01 38:00:52 TRACK 17 AUDIO TITLE "Honey Hair, Sugar Lips, Eyes Of Blue" PERFORMER "The Crew Cuts" INDEX 00 40:44:10 INDEX 01 40:46:67 TRACK 18 AUDIO TITLE "Out Of The Picture" PERFORMER "The Crew Cuts" INDEX 00 42:50:42 INDEX 01 42:53:25 TRACK 19 AUDIO TITLE "Tell Me Why" PERFORMER "The Crew Cuts" INDEX 00 45:17:32 INDEX 01 45:20:15 TRACK 20 AUDIO TITLE "Young Love" PERFORMER "The Crew Cuts" INDEX 00 47:29:07 INDEX 01 47:31:65 TRACK 21 AUDIO TITLE "Be My Only Love" PERFORMER "The Crew Cuts" INDEX 00 50:00:02 INDEX 01 50:02:60 TRACK 22 AUDIO TITLE "I Like It Like That" PERFORMER "The Crew Cuts" INDEX 00 52:05:70 INDEX 01 52:08:52
Recording Date: 1954-1957.


Трекер:  [ 11-Ноя-2012 17:56 ]

  

Скачать .torrent

Размер .torrent файла 18 KB


Размер: 221 MB
Хэш (hash) релиза: 68d1dc583edfdcddc1493436587dfa7cab0b51af

Еще никто не оставлял запись к записи скачать торрент The Crew Cuts - The Best Of The Crew Cuts: The Mercury Years - 1996, FLAC . Будь первым!

!Обратная связь