Скачать через торрент музыку Gene Vincent - Bluejean Bop! бесплатно без регистрации torrent

Если у вас наблюдаются проблемы со скриншотами, переходом по ссылками, скачиванием торрентов - проблемы в блокировщике рекламы AdBlock. #хорошегоДня!


Статистика раздачи
Размер:  149 MB   |    Зарегистрирован:  5 лет   |    .torrent скачан:  7 раз   |   
Раздают:  1  
   
Загрузка...
 
Автор Сообщение

Galfimbul

avatar Galfimbul


Gene Vincent / Bluejean Bop! [Bonus Tracks]

Жанр: Rock & Roll, Rockabilly
Страна-производитель диска: USA
Год издания диска: 2002
Издатель (лейбл): Capitol Records
Номер по каталогу: 72435-40685-2-2
Страна: USA
Аудио кодек: FLAC (*.flac)
Тип рипа: image+.cue
Битрейт аудио: lossless
Продолжительность: 43:08
Источник (релизер): Рип с компакт диска из моей коллекции
Наличие сканов в содержимом раздачи: да

Треклист:
01. Blue Jean Bop
02. Jezebel
03. Who Slapped John?
04. Ain't She Sweet
05. I Flipped
06. Waltz Of The Wind
07. Jump Back, Honey, Jump Back
08. Wedding Bells (Are Breaking Up That Old Gang Of Mine)
09. Jumps, Giggles And Shouts
10. Lazy River
11. Bop Street
12. Peg O' My Heart
13. Woman Love [Bonus Track]
14. Be-Bop-A-Lula [Bonus Track]
15. Race With The Devil [Bonus Track]
16. Gonna Back Up Baby [Bonus Track]
17. Well, I Knocked, Bim Bam [Bonus Track]
18. Crazy Legs [Bonus Track]
Exact Audio Copy V0.99 prebeta 5 from 4. May 2009

EAC extraction logfile from 25. December 2010, 21:54

Gene Vincent And His Blue Caps / Bluejean Bop! [Bonus Tracks]

Used drive : Optiarc DVD RW AD-7241S Adapter: 5 ID: 0

Read mode : SecureUtilize accurate stream : YesDefeat audio cache : YesMake use of C2 pointers : No

Read offset correction : 48Overread into Lead-In and Lead-Out : NoFill up missing offset samples with silence : YesDelete leading and trailing silent blocks : NoNull samples used in CRC calculations : YesUsed interface : Native Win32 interface for Win NT & 2000

Used output format : User Defined EncoderSelected bitrate : 768 kBit/sQuality : HighAdd ID3 tag : NoCommand line compressor : D:\Program Files (x86)\Exact Audio Copy\FLAC\FLAC.EXEAdditional command line options : -6 -V -T "ARTIST=%a" -T "TITLE=%t" -T "ALBUM=%g" -T "DATE=%y" -T "TRACKNUMBER=%n" -T "GENRE=%m" -T "COMMENT=%e" %s -o %d

TOC of the extracted CD

Track | Start | Length | Start sector | End sector --------------------------------------------------------- 1 | 0:00.00 | 2:22.42 | 0 | 10691 2 | 2:22.42 | 2:24.45 | 10692 | 21536 3 | 4:47.12 | 1:58.38 | 21537 | 30424 4 | 6:45.50 | 2:29.47 | 30425 | 41646 5 | 9:15.22 | 2:25.60 | 41647 | 52581 6 | 11:41.07 | 2:43.08 | 52582 | 64814 7 | 14:24.15 | 2:00.65 | 64815 | 73879 8 | 16:25.05 | 2:31.67 | 73880 | 85271 9 | 18:56.72 | 2:51.03 | 85272 | 98099 10 | 21:48.00 | 2:21.40 | 98100 | 108714 11 | 24:09.40 | 2:24.60 | 108715 | 119574 12 | 26:34.25 | 2:36.70 | 119575 | 131344 13 | 29:11.20 | 2:33.50 | 131345 | 142869 14 | 31:44.70 | 2:36.20 | 142870 | 154589 15 | 34:21.15 | 2:03.17 | 154590 | 163831 16 | 36:24.32 | 2:26.00 | 163832 | 174781 17 | 38:50.32 | 2:14.10 | 174782 | 184841 18 | 41:04.42 | 2:12.00 | 184842 | 194741

Range status and errors

Selected range

Filename F:\lossless\Gene Vincent\2002 - Bluejean Bop! [Bonus Tracks]\Gene Vincent And His Blue Caps - Bluejean Bop! [Bonus Tracks].wav

Peak level 98.8 % Range quality 100.0 % Test CRC 4669AB81 Copy CRC 4669AB81 Copy OK

No errors occurred

AccurateRip summary

Track 1 accurately ripped (confidence 2) [17FFF929]Track 2 accurately ripped (confidence 2) [E9506EFD]Track 3 accurately ripped (confidence 2) [3DDA4881]Track 4 accurately ripped (confidence 2) [6292392B]Track 5 accurately ripped (confidence 2) [E16D8CB9]Track 6 accurately ripped (confidence 2) [010B4231]Track 7 accurately ripped (confidence 2) [F61C92A6]Track 8 accurately ripped (confidence 2) [52B9C49E]Track 9 accurately ripped (confidence 2) [AA7C2E14]Track 10 accurately ripped (confidence 2) [D2D05030]Track 11 accurately ripped (confidence 2) [BF7B075B]Track 12 accurately ripped (confidence 2) [D31F19B3]Track 13 accurately ripped (confidence 2) [4015457A]Track 14 accurately ripped (confidence 2) [F8851DD3]Track 15 accurately ripped (confidence 2) [A23D78BC]Track 16 accurately ripped (confidence 2) [E638B405]Track 17 accurately ripped (confidence 2) [3CCF8315]Track 18 accurately ripped (confidence 2) [EBD5131D]

All tracks accurately ripped

End of status report
Digitally remastered edition of the Rock 'N' Roll rebel's 1956 debut album. Gene Vincent is rightly regarded as one of the pioneers of Rock, with hits such as 'Be Bop A Lula' as fresh and exciting today as they were when originally released.


Трекер:  [ 11-Ноя-2012 17:56 ]

  

Скачать .torrent

Размер .torrent файла 12 KB


Размер: 149 MB
Хэш (hash) релиза: 06e439c52ec906a541753cdb6c3ebdadecb4c878

Еще никто не оставлял запись к записи скачать торрент Gene Vincent - Bluejean Bop! . Будь первым!

!Обратная связь