Скачать через торрент музыку Gene Vincent - Gene Vincent And The Blue Caps бесплатно без регистрации torrent

Если у вас наблюдаются проблемы со скриншотами, переходом по ссылками, скачиванием торрентов - проблемы в блокировщике рекламы AdBlock. #хорошегоДня!


Статистика раздачи
Размер:  135 MB   |    Зарегистрирован:  5 лет   |    .torrent скачан:  24 раза   |   
Раздают:  1  
   
Загрузка...
 
Автор Сообщение

Galfimbul

avatar Galfimbul


Gene Vincent / Gene Vincent And The Blue Caps [Bonus Tracks]

Жанр: Rock & Roll, Rockabilly
Страна-производитель диска: USA
Год издания диска: 2002
Издатель (лейбл): Capitol Records
Номер по каталогу: 72435-40684-2-3
Страна: USA
Аудио кодек: FLAC (*.flac)
Тип рипа: image+.cue
Битрейт аудио: lossless
Продолжительность: 39:40
Источник (релизер): Рип с компакт диска из моей коллекции
Наличие сканов в содержимом раздачи: да

Треклист:
01. Red Blue Jeans And A Pony Tail
02. Hold Me, Hug Me, Rock Me
03. Unchained Melody
04. You Told A Fib
05. Cat Man
06. You Better Believe
07. Cruisin'
08. Double Talkin' Baby
09. Blues Stay Away From Me
10. Pink Thunderbird
11. I Sure Miss You
12. Pretty, Pretty Baby
13. Important Words [Version One] [Bonus Track]
14. B-I-Bickey-Bi, Bo-Bo-Go [Bonus Track]
15. Five Days, Five Days [Bonus Track]
16. Teenage Partner [Version One] [Bonus Track]
17. Five Feet Of Lovin' [Version One] [Bonus Track]
Exact Audio Copy V0.99 prebeta 5 from 4. May 2009

EAC extraction logfile from 25. December 2010, 23:02

Gene Vincent And The Blue Caps / Gene Vincent And The Blue Caps [Bonus Tracks]

Used drive : Optiarc DVD RW AD-7241S Adapter: 5 ID: 0

Read mode : SecureUtilize accurate stream : YesDefeat audio cache : YesMake use of C2 pointers : No

Read offset correction : 48Overread into Lead-In and Lead-Out : NoFill up missing offset samples with silence : YesDelete leading and trailing silent blocks : NoNull samples used in CRC calculations : YesUsed interface : Native Win32 interface for Win NT & 2000

Used output format : User Defined EncoderSelected bitrate : 768 kBit/sQuality : HighAdd ID3 tag : NoCommand line compressor : D:\Program Files (x86)\Exact Audio Copy\FLAC\FLAC.EXEAdditional command line options : -6 -V -T "ARTIST=%a" -T "TITLE=%t" -T "ALBUM=%g" -T "DATE=%y" -T "TRACKNUMBER=%n" -T "GENRE=%m" -T "COMMENT=%e" %s -o %d

TOC of the extracted CD

Track | Start | Length | Start sector | End sector --------------------------------------------------------- 1 | 0:00.00 | 2:15.02 | 0 | 10126 2 | 2:15.02 | 2:15.28 | 10127 | 20279 3 | 4:30.30 | 2:38.10 | 20280 | 32139 4 | 7:08.40 | 2:21.37 | 32140 | 42751 5 | 9:30.02 | 2:18.33 | 42752 | 53134 6 | 11:48.35 | 2:01.42 | 53135 | 62251 7 | 13:50.02 | 2:12.68 | 62252 | 72219 8 | 16:02.70 | 2:12.60 | 72220 | 82179 9 | 18:15.55 | 2:16.22 | 82180 | 92401 10 | 20:32.02 | 2:32.45 | 92402 | 103846 11 | 23:04.47 | 2:38.33 | 103847 | 115729 12 | 25:43.05 | 2:27.35 | 115730 | 126789 13 | 28:10.40 | 2:21.57 | 126790 | 137421 14 | 30:32.22 | 2:16.28 | 137422 | 147649 15 | 32:48.50 | 2:37.50 | 147650 | 159474 16 | 35:26.25 | 2:14.57 | 159475 | 169581 17 | 37:41.07 | 2:06.73 | 169582 | 179104

Range status and errors

Selected range

Filename F:\lossless\Gene Vincent\2002 - Gene Vincent And The Blue Caps [Bonus Tracks]\Gene Vincent And The Blue Caps - Gene Vincent And The Blue Caps [Bonus Tracks].wav

Peak level 98.8 % Range quality 100.0 % Test CRC 4B302BBA Copy CRC 4B302BBA Copy OK

No errors occurred

AccurateRip summary

Track 1 accurately ripped (confidence 5) [9BFB4AEF]Track 2 accurately ripped (confidence 5) [E5675329]Track 3 accurately ripped (confidence 5) [C4FEB789]Track 4 accurately ripped (confidence 5) [320236F1]Track 5 accurately ripped (confidence 5) [078DC49E]Track 6 accurately ripped (confidence 5) [5F54557D]Track 7 accurately ripped (confidence 5) [06239ABB]Track 8 accurately ripped (confidence 5) [D79A0FED]Track 9 accurately ripped (confidence 5) [AD99046E]Track 10 accurately ripped (confidence 5) [F359673D]Track 11 accurately ripped (confidence 5) [3BB6D57A]Track 12 accurately ripped (confidence 5) [EF904773]Track 13 accurately ripped (confidence 5) [751E3ACF]Track 14 accurately ripped (confidence 5) [CE6DE011]Track 15 accurately ripped (confidence 5) [742ACB5A]Track 16 accurately ripped (confidence 5) [4611CADD]Track 17 accurately ripped (confidence 5) [6105E179]

All tracks accurately ripped

End of status report
Remastered Reissue of his 1957 Release.


Трекер:  [ 11-Ноя-2012 17:56 ]

  

Скачать .torrent

Размер .torrent файла 11 KB


Размер: 135 MB
Хэш (hash) релиза: 9e098ad584648b326e6f77fee6dc451b27037514

Еще никто не оставлял запись к записи скачать торрент Gene Vincent - Gene Vincent And The Blue Caps . Будь первым!

!Обратная связь