Скачать через торрент музыку Bill Haley & His Comets - Rock Around The Clock бесплатно без регистрации torrent

Если у вас наблюдаются проблемы со скриншотами, переходом по ссылками, скачиванием торрентов - проблемы в блокировщике рекламы AdBlock. #хорошегоДня!


Статистика раздачи
Размер:  201 MB   |    Зарегистрирован:  4 года 9 месяцев   |    .torrent скачан:  26 раз   |   
Раздают:  1  
   
Загрузка...
 
Автор Сообщение

Galfimbul

avatar Galfimbul


Bill Haley & His Comets / Rock Around The Clock [Bonus Tracks]

Жанр: Rock & Roll
Страна-производитель диска: USA
Год издания диска: 2004
Издатель (лейбл): Geffen Records
Номер по каталогу: B0001705-02
Страна: USA
Аудио кодек: FLAC (*.flac)
Тип рипа: image+.cue
Битрейт аудио: lossless
Продолжительность: 39:28
Источник (релизер): Рип с компакт диска из моей коллекции
Наличие сканов в содержимом раздачи: да

Треклист:
01. (We're Gonna) Rock Around The Clock
02. Shake, Rattle And Roll
03. ABC Boogie
04. Thirteen Women (And Only One Man In Town)
05. Razzle Dazzle
06. Two Hound Dogs
07. Dim, Dim The Lights (I Want Some Atmosphere)
08. Happy Baby
09. Birth Of The Boogie
10. Mambo Rock
11. Burn That Candle
12. Rock-A-Beatin' Boogie
13. R-O-C-K [Bonus Track]
14. The Saints Rock 'N' Roll [Bonus Track]
15. See You Later, Alligator [Bonus Track]
Exact Audio Copy V0.99 prebeta 5 from 4. May 2009

EAC extraction logfile from 7. January 2011, 19:17

Bill Haley & His Comets / Rock Around The Clock [Bonus Tracks]

Used drive : Optiarc DVD RW AD-7241S Adapter: 5 ID: 0

Read mode : SecureUtilize accurate stream : YesDefeat audio cache : YesMake use of C2 pointers : No

Read offset correction : 48Overread into Lead-In and Lead-Out : NoFill up missing offset samples with silence : YesDelete leading and trailing silent blocks : NoNull samples used in CRC calculations : YesUsed interface : Native Win32 interface for Win NT & 2000

Used output format : User Defined EncoderSelected bitrate : 768 kBit/sQuality : HighAdd ID3 tag : NoCommand line compressor : D:\Program Files (x86)\Exact Audio Copy\FLAC\FLAC.EXEAdditional command line options : -6 -V -T "ARTIST=%a" -T "TITLE=%t" -T "ALBUM=%g" -T "DATE=%y" -T "TRACKNUMBER=%n" -T "GENRE=%m" -T "COMMENT=%e" %s -o %d

TOC of the extracted CD

Track | Start | Length | Start sector | End sector --------------------------------------------------------- 1 | 0:00.00 | 2:11.35 | 0 | 9859 2 | 2:11.35 | 2:31.02 | 9860 | 21186 3 | 4:42.37 | 2:29.38 | 21187 | 32399 4 | 7:12.00 | 2:53.47 | 32400 | 45421 5 | 10:05.47 | 2:43.15 | 45422 | 57661 6 | 12:48.62 | 2:59.18 | 57662 | 71104 7 | 15:48.05 | 2:31.45 | 71105 | 82474 8 | 18:19.50 | 2:36.30 | 82475 | 94204 9 | 20:56.05 | 2:15.70 | 94205 | 104399 10 | 23:12.00 | 2:38.55 | 104400 | 116304 11 | 25:50.55 | 2:46.10 | 116305 | 128764 12 | 28:36.65 | 2:21.15 | 128765 | 139354 13 | 30:58.05 | 2:21.12 | 139355 | 149941 14 | 33:19.17 | 3:29.73 | 149942 | 165689 15 | 36:49.15 | 2:44.32 | 165690 | 178021

Range status and errors

Selected range

Filename F:\lossless\Bill Haley\2004 - Rock Around The Clock [Bonus Tracks]\Bill Haley & His Comets - Rock Around The Clock [Bonus Tracks].wav

Peak level 98.8 % Range quality 100.0 % Test CRC B015E8A3 Copy CRC B015E8A3 Copy OK

No errors occurred

AccurateRip summary

Track 1 accurately ripped (confidence 9) [5DB44B53]Track 2 accurately ripped (confidence 9) [5E6C770F]Track 3 accurately ripped (confidence 9) [0A514AAB]Track 4 accurately ripped (confidence 9) [0750CBFD]Track 5 accurately ripped (confidence 9) [872DF816]Track 6 accurately ripped (confidence 9) [B4CAE892]Track 7 accurately ripped (confidence 9) [A98EB5E0]Track 8 accurately ripped (confidence 9) [04DE6879]Track 9 accurately ripped (confidence 9) [F9AC0259]Track 10 accurately ripped (confidence 9) [1036C32A]Track 11 accurately ripped (confidence 9) [0A1A4E34]Track 12 accurately ripped (confidence 9) [8E2A77A1]Track 13 accurately ripped (confidence 9) [3BB11BB8]Track 14 accurately ripped (confidence 9) [4D98BD61]Track 15 accurately ripped (confidence 9) [FCA0B56A]

All tracks accurately ripped

End of status report
Release Date: Jun 1956.
Recording Date: Apr 12, 1954-Dec 12, 1955.


Трекер:  [ 11-Ноя-2012 17:56 ]

  

Скачать .torrent

Размер .torrent файла 17 KB


Размер: 201 MB
Хэш (hash) релиза: 71661815597c40b963cf06908d4ca9c59f062fc4

Еще никто не оставлял запись к записи скачать торрент Bill Haley & His Comets - Rock Around The Clock . Будь первым!

!Обратная связь