Скачать через торрент музыку Wanda Jackson - Rockin In The Country: The Best Of Wanda Jackson - 1990, FLAC бесплатно без регистрации torrent

Если у вас наблюдаются проблемы со скриншотами, переходом по ссылками, скачиванием торрентов - проблемы в блокировщике рекламы AdBlock. #хорошегоДня!


Статистика раздачи
Размер:  245 MB   |    Зарегистрирован:  5 лет   |    .torrent скачан:  11 раз   |   
Раздают:  1  
   
Загрузка...
 
Автор Сообщение

Galfimbul

avatar Galfimbul


Wanda Jackson / Rockin' In The Country: The Best Of Wanda Jackson

Жанр: Rockabilly, Traditional Country
Страна-производитель диска: USA
Год издания диска: 1990
Издатель (лейбл): CEMA Special Markets / Rhino Records
Номер по каталогу: S2 18816 / R2 70990
Страна: USA
Аудио кодек: FLAC (*.flac)
Тип рипа: image+.cue
Битрейт аудио: lossless
Продолжительность: 42:56
Источник (релизер): Компакт диска из моей коллекции
Наличие сканов в содержимом раздачи: да

Треклист:
01. Let's Have A Party
02. Honey Bop
03. Baby Loves Him
04. Hot Dog! That Made Him Mad
05. Mean Mean Man
06. Cool Love
07. Riot In Cell Block #9
08. Fujiyama Mama
09. Savin' My Love
10. Why I'm Walkin'
11. Right Or Wrong
12. Tears Will Be The Chaser For Your Wine
13. In The Middle Of A Heartache
14. Fancy Satin Pillows
15. My Big Iron Skillet
16. The Box It Came In
17. A Girl Don't Have To Drink To Have Fun
18. Making Believe
Exact Audio Copy V0.99 prebeta 5 from 4. May 2009

EAC extraction logfile from 9. January 2011, 19:00

Wanda Jackson / Rockin' In The Country: The Best Of Wanda Jackson

Used drive : Optiarc DVD RW AD-7241S Adapter: 5 ID: 0

Read mode : SecureUtilize accurate stream : YesDefeat audio cache : YesMake use of C2 pointers : No

Read offset correction : 48Overread into Lead-In and Lead-Out : NoFill up missing offset samples with silence : YesDelete leading and trailing silent blocks : NoNull samples used in CRC calculations : YesUsed interface : Native Win32 interface for Win NT & 2000

Used output format : User Defined EncoderSelected bitrate : 768 kBit/sQuality : HighAdd ID3 tag : NoCommand line compressor : D:\Program Files (x86)\Exact Audio Copy\FLAC\FLAC.EXEAdditional command line options : -6 -V -T "ARTIST=%a" -T "TITLE=%t" -T "ALBUM=%g" -T "DATE=%y" -T "TRACKNUMBER=%n" -T "GENRE=%m" -T "COMMENT=%e" %s -o %d

TOC of the extracted CD

Track | Start | Length | Start sector | End sector --------------------------------------------------------- 1 | 0:00.00 | 2:12.27 | 0 | 9926 2 | 2:12.27 | 2:15.05 | 9927 | 20056 3 | 4:27.32 | 2:03.30 | 20057 | 29311 4 | 6:30.62 | 2:41.73 | 29312 | 41459 5 | 9:12.60 | 2:13.55 | 41460 | 51489 6 | 11:26.40 | 2:18.40 | 51490 | 61879 7 | 13:45.05 | 2:31.35 | 61880 | 73239 8 | 16:16.40 | 2:14.70 | 73240 | 83359 9 | 18:31.35 | 2:08.12 | 83360 | 92971 10 | 20:39.47 | 2:34.10 | 92972 | 104531 11 | 23:13.57 | 2:39.43 | 104532 | 116499 12 | 25:53.25 | 2:25.05 | 116500 | 127379 13 | 28:18.30 | 2:36.20 | 127380 | 139099 14 | 30:54.50 | 2:25.70 | 139100 | 150044 15 | 33:20.45 | 2:15.20 | 150045 | 160189 16 | 35:35.65 | 2:26.22 | 160190 | 171161 17 | 38:02.12 | 2:41.18 | 171162 | 183254 18 | 40:43.30 | 2:18.02 | 183255 | 193606

Range status and errors

Selected range

Filename F:\lossless\Wanda Jackson\1990 - Rockin' In The Country- The Best Of Wanda Jackson\Wanda Jackson - Rockin' In The Country- The Best Of Wanda Jackson.wav

Peak level 100.0 % Range quality 100.0 % Test CRC 38F7A3BC Copy CRC 38F7A3BC Copy OK

No errors occurred

AccurateRip summary

Track 1 cannot be verified as accurate (confidence 4) [8745DC8E], AccurateRip returned [85AFF4E7]Track 2 cannot be verified as accurate (confidence 3) [D9879B16], AccurateRip returned [F4DA442E]Track 3 cannot be verified as accurate (confidence 4) [2A69C7FB], AccurateRip returned [9EBFD3FC]Track 4 cannot be verified as accurate (confidence 4) [C81747D3], AccurateRip returned [4B71B05B]Track 5 cannot be verified as accurate (confidence 4) [19B69BF8], AccurateRip returned [EB90A667]Track 6 cannot be verified as accurate (confidence 4) [393C6ABB], AccurateRip returned [82827C11]Track 7 cannot be verified as accurate (confidence 4) [7EA5D644], AccurateRip returned [535FFD22]Track 8 cannot be verified as accurate (confidence 4) [C72B3BCF], AccurateRip returned [16FEAE04]Track 9 cannot be verified as accurate (confidence 4) [CA0510C7], AccurateRip returned [F2E63778]Track 10 cannot be verified as accurate (confidence 4) [5C392DB9], AccurateRip returned [A843D4EE]Track 11 cannot be verified as accurate (confidence 4) [90DCC8D5], AccurateRip returned [DE898F00]Track 12 cannot be verified as accurate (confidence 4) [A1D30BA5], AccurateRip returned [9CDFAEF2]Track 13 cannot be verified as accurate (confidence 4) [920B744C], AccurateRip returned [79805481]Track 14 cannot be verified as accurate (confidence 4) [F54CECA1], AccurateRip returned [B6644208]Track 15 cannot be verified as accurate (confidence 4) [BC5D3536], AccurateRip returned [ECF33B97]Track 16 cannot be verified as accurate (confidence 4) [8C66F5D9], AccurateRip returned [24275B82]Track 17 cannot be verified as accurate (confidence 4) [5F380192], AccurateRip returned [691E5722]Track 18 cannot be verified as accurate (confidence 4) [D50993E8], AccurateRip returned [4FDAC269]

No tracks could be verified as accurateYou may have a different pressing from the one(s) in the database

End of status report
Perhaps the greatest of the rockabilly women, Wanda Jackson later turned to pure country. Rhino's Best of Wanda Jackson - Rockin' in the Country presents the best of both eras here on this 18-track collection.
Recording Date: 1956 - 1970.


Трекер:  [ 11-Ноя-2012 17:56 ]

  

Скачать .torrent

Размер .torrent файла 20 KB


Размер: 245 MB
Хэш (hash) релиза: fcc30b3c2fdf8fddac771c73bee4bd9d5a13b4de

Еще никто не оставлял запись к записи скачать торрент Wanda Jackson - Rockin In The Country: The Best Of Wanda Jackson - 1990, FLAC . Будь первым!

!Обратная связь