Скачать через торрент музыку Gary U.S. Bonds - The Best Of Gary U.S. Bonds - 1990, FLAC бесплатно без регистрации torrent

Если у вас наблюдаются проблемы со скриншотами, переходом по ссылками, скачиванием торрентов - проблемы в блокировщике рекламы AdBlock. #хорошегоДня!


Статистика раздачи
Размер:  302 MB   |    Зарегистрирован:  5 лет   |    .torrent скачан:  25 раз   |   
Раздают:  1  
   
Загрузка...
 
Автор Сообщение

Galfimbul

avatar Galfimbul


Gary U.S. Bonds / The Best Of Gary U.S. Bonds

Жанр: Early R&B, Rock & Roll
Страна-производитель диска: USA
Год издания диска: 1990
Издатель (лейбл): Legrand Records / Rhino Records
Номер по каталогу: R2 70971
Страна: USA
Аудио кодек: FLAC (*.flac)
Тип рипа: image+.cue
Битрейт аудио: lossless
Продолжительность: 52:21
Источник (релизер): Рип с компакт диска из моей коллекции
Наличие сканов в содержимом раздачи: да

Треклист:
01. New Orleans
02. Take Me Back To New Orleans
03. Quarter To Three
04. No More Homework
05. School Is Out
06. School Is In
07. Dear Lady Twist
08. Twist, Twist Señora
09. Havin' So Much Fun
10. Do The Bumpsie
11. Perdido (Parts 1 & 2)
12. Seven Day Weekend
13. Soul Food
14. Copy Cat
15. I Wanta Holler (But The Town's Too Small)
16. Lover's Moon
17. Not Me
19. Where Did The Naughty Little Girl Go
Exact Audio Copy V0.99 prebeta 5 from 4. May 2009

EAC extraction logfile from 10. January 2011, 12:45

Gary U.S. Bonds / The Best Of Gary U.S. Bonds

Used drive : Optiarc DVD RW AD-7241S Adapter: 5 ID: 0

Read mode : SecureUtilize accurate stream : YesDefeat audio cache : YesMake use of C2 pointers : No

Read offset correction : 48Overread into Lead-In and Lead-Out : NoFill up missing offset samples with silence : YesDelete leading and trailing silent blocks : NoNull samples used in CRC calculations : YesUsed interface : Native Win32 interface for Win NT & 2000

Used output format : User Defined EncoderSelected bitrate : 768 kBit/sQuality : HighAdd ID3 tag : NoCommand line compressor : D:\Program Files (x86)\Exact Audio Copy\FLAC\FLAC.EXEAdditional command line options : -6 -V -T "ARTIST=%a" -T "TITLE=%t" -T "ALBUM=%g" -T "DATE=%y" -T "TRACKNUMBER=%n" -T "GENRE=%m" -T "COMMENT=%e" %s -o %d

TOC of the extracted CD

Track | Start | Length | Start sector | End sector --------------------------------------------------------- 1 | 0:00.00 | 2:52.35 | 0 | 12934 2 | 2:52.35 | 2:56.70 | 12935 | 26204 3 | 5:49.30 | 2:30.08 | 26205 | 37462 4 | 8:19.38 | 2:27.50 | 37463 | 48537 5 | 10:47.13 | 2:29.65 | 48538 | 59777 6 | 13:17.03 | 2:08.10 | 59778 | 69387 7 | 15:25.13 | 2:33.02 | 69388 | 80864 8 | 17:58.15 | 2:38.43 | 80865 | 92757 9 | 20:36.58 | 3:17.25 | 92758 | 107557 10 | 23:54.08 | 2:37.37 | 107558 | 119369 11 | 26:31.45 | 5:21.23 | 119370 | 143467 12 | 31:52.68 | 2:33.70 | 143468 | 155012 13 | 34:26.63 | 2:42.10 | 155013 | 167172 14 | 37:08.73 | 2:39.00 | 167173 | 179097 15 | 39:47.73 | 4:11.45 | 179098 | 197967 16 | 43:59.43 | 2:32.70 | 197968 | 209437 17 | 46:32.38 | 2:37.70 | 209438 | 221282 18 | 49:10.33 | 3:18.22 | 221283 | 236154

Range status and errors

Selected range

Filename F:\lossless\Gary U.S. Bonds\1990 - The Best Of Gary U.S. Bonds\Gary U.S. Bonds - The Best Of Gary U.S. Bonds.wav

Peak level 100.0 % Range quality 100.0 % Test CRC 94354C14 Copy CRC 94354C14 Copy OK

No errors occurred

AccurateRip summary

Track 1 not present in databaseTrack 2 not present in databaseTrack 3 not present in databaseTrack 4 not present in databaseTrack 5 not present in databaseTrack 6 not present in databaseTrack 7 not present in databaseTrack 8 not present in databaseTrack 9 not present in databaseTrack 10 not present in databaseTrack 11 not present in databaseTrack 12 not present in databaseTrack 13 not present in databaseTrack 14 not present in databaseTrack 15 not present in databaseTrack 16 not present in databaseTrack 17 not present in databaseTrack 18 not present in database

None of the tracks are present in the AccurateRip database

End of status report
Recording Date: 1960-1966.


Трекер:  [ 11-Ноя-2012 17:56 ]

  

Скачать .torrent

Размер .torrent файла 12 KB


Размер: 302 MB
Хэш (hash) релиза: b66bd26f440425cbf0bbe454c77d03a4b3a60747

Еще никто не оставлял запись к записи скачать торрент Gary U.S. Bonds - The Best Of Gary U.S. Bonds - 1990, FLAC . Будь первым!

!Обратная связь