Скачать через торрент музыку Joey Dee And The Starliters - Hey, Lets Twist! The Best Of Joey Dee And The Starliters - 1990, FLAC бесплатно без регистрации torrent

Если у вас наблюдаются проблемы со скриншотами, переходом по ссылками, скачиванием торрентов - проблемы в блокировщике рекламы AdBlock. #хорошегоДня!


Статистика раздачи
Размер:  296 MB   |    Зарегистрирован:  5 лет   |    .torrent скачан:  25 раз   |   
Раздают:  1  
   
Загрузка...
 
Автор Сообщение

Galfimbul

avatar Galfimbul


Joey Dee And The Starliters / Hey, Let's Twist! The Best Of Joey Dee And The Starliters

Жанр: Early Pop/Rock, Twist
Страна-производитель диска: USA
Год издания диска: 1990
Издатель (лейбл): Rhino Records
Номер по каталогу: R2 70965
Страна: USA
Аудио кодек: FLAC (*.flac)
Тип рипа: image+.cue
Битрейт аудио: lossless
Продолжительность: 47:13
Источник (релизер): Рип с компакт диска из моей коллекции
Наличие сканов в содержимом раздачи: да

Треклист:
01. Peppermint Twist - Part 1
02. Peppermint Twist - Part 2
03. Hey, Let's Twist
04. Roly Poly
05. Joey's Blues
06. Shout - Part 1
07. Irresistible You
08. Crazy Love
09. Everytime (I Think About You) - Part 1
10. What Kind Of Love Is This
11. I Lost My Baby
12. Keep Your Mind On What You're Doing
13. Help Me Pick Up The Pieces
14. Baby, You're Driving Me Crazy
15. (Hot Pastrami With) Mashed Potatoes
16. Dance, Dance, Dance
17. Ya Ya
18. Fanny Mae
Exact Audio Copy V0.99 prebeta 5 from 4. May 2009

EAC extraction logfile from 15. January 2011, 19:51

Joey Dee And The Starliters / Hey, Let's Twist! The Best Of Joey Dee And The Starliters

Used drive : Optiarc DVD RW AD-7241S Adapter: 5 ID: 0

Read mode : SecureUtilize accurate stream : YesDefeat audio cache : YesMake use of C2 pointers : No

Read offset correction : 48Overread into Lead-In and Lead-Out : NoFill up missing offset samples with silence : YesDelete leading and trailing silent blocks : NoNull samples used in CRC calculations : YesUsed interface : Native Win32 interface for Win NT & 2000

Used output format : User Defined EncoderSelected bitrate : 768 kBit/sQuality : HighAdd ID3 tag : NoCommand line compressor : D:\Program Files (x86)\Exact Audio Copy\FLAC\FLAC.EXEAdditional command line options : -6 -V -T "ARTIST=%a" -T "TITLE=%t" -T "ALBUM=%g" -T "DATE=%y" -T "TRACKNUMBER=%n" -T "GENRE=%m" -T "COMMENT=%e" %s -o %d

TOC of the extracted CD

Track | Start | Length | Start sector | End sector --------------------------------------------------------- 1 | 0:00.32 | 2:01.23 | 32 | 9129 2 | 2:01.55 | 1:55.67 | 9130 | 17821 3 | 3:57.47 | 2:02.33 | 17822 | 27004 4 | 6:00.05 | 2:07.52 | 27005 | 36581 5 | 8:07.57 | 2:21.23 | 36582 | 47179 6 | 10:29.05 | 2:36.35 | 47180 | 58914 7 | 13:05.40 | 2:18.60 | 58915 | 69324 8 | 15:24.25 | 1:59.40 | 69325 | 78289 9 | 17:23.65 | 3:55.67 | 78290 | 95981 10 | 21:19.57 | 2:11.05 | 95982 | 105811 11 | 23:30.62 | 2:27.50 | 105812 | 116886 12 | 25:58.37 | 2:00.68 | 116887 | 125954 13 | 27:59.30 | 2:24.10 | 125955 | 136764 14 | 30:23.40 | 2:22.47 | 136765 | 147461 15 | 32:46.12 | 4:49.58 | 147462 | 169194 16 | 37:35.70 | 2:04.40 | 169195 | 178534 17 | 39:40.35 | 3:50.45 | 178535 | 195829 18 | 43:31.05 | 3:52.02 | 195830 | 213231

Range status and errors

Selected range

Filename F:\lossless\Joey Dee And The Starliters\1990 - Hey, Let's Twist! The Best Of Joey Dee And The Starliters\Joey Dee And The Starliters - Hey, Let's Twist! The Best Of Joey Dee And The Starliters.wav

Peak level 100.0 % Range quality 99.9 % Test CRC 9312EA8E Copy CRC 9312EA8E Copy OK

No errors occurred

AccurateRip summary

Track 1 not present in databaseTrack 2 not present in databaseTrack 3 not present in databaseTrack 4 not present in databaseTrack 5 not present in databaseTrack 6 not present in databaseTrack 7 not present in databaseTrack 8 not present in databaseTrack 9 not present in databaseTrack 10 not present in databaseTrack 11 not present in databaseTrack 12 not present in databaseTrack 13 not present in databaseTrack 14 not present in databaseTrack 15 not present in databaseTrack 16 not present in databaseTrack 17 not present in databaseTrack 18 not present in database

None of the tracks are present in the AccurateRip database

End of status report
Recording Date: 1961-1963.


Трекер:  [ 11-Ноя-2012 17:56 ]

  

Скачать .torrent

Размер .torrent файла 12 KB


Размер: 296 MB
Хэш (hash) релиза: d02121f1bcf5c72ac41115921eb95a7e97952970

Еще никто не оставлял запись к записи скачать торрент Joey Dee And The Starliters - Hey, Lets Twist! The Best Of Joey Dee And The Starliters - 1990, FLAC . Будь первым!

!Обратная связь