Скачать через торрент музыку Dion - The Essential Dion - 2005, FLAC бесплатно без регистрации torrent

Если у вас наблюдаются проблемы со скриншотами, переходом по ссылками, скачиванием торрентов - проблемы в блокировщике рекламы AdBlock. #хорошегоДня!


Статистика раздачи
Размер:  165 MB   |    Зарегистрирован:  4 года 9 месяцев   |    .torrent скачан:  10 раз   |   
Раздают:  1  
   
Загрузка...
 
Автор Сообщение

Galfimbul

avatar Galfimbul


Dion / The Essential Dion

Жанр: Doo Wop, Early Pop/Rock, Teen Idols
Страна-производитель диска: USA
Год издания диска: 2005
Издатель (лейбл): Sony BMG Music Entertainment
Номер по каталогу: 82876 77622 2
Страна: USA
Аудио кодек: FLAC (*.flac)
Тип рипа: image+.cue
Битрейт аудио: lossless
Продолжительность: 37:14
Источник (релизер): Рип с компакт диска из моей коллекции
Наличие сканов в содержимом раздачи: да

Треклист:
01. The Wanderer
02. Runaround Sue
03. Lovers Who Wander
04. Ruby Baby
05. Can't We Be Sweethearts
06. This Little Girl Of Mine
07. Donna The Prima Donna
08. No One's Waiting For Me
09. Drip Drop
19. This Little Girl
11. Sweet, Sweet Baby
12. Kickin' Child
13. Time In My Heart For You
14. Abraham, Martin And John
Exact Audio Copy V0.99 prebeta 5 from 4. May 2009

EAC extraction logfile from 15. December 2010, 0:45

Dion / The Essential Dion

Used drive : Optiarc DVD RW AD-7241S Adapter: 5 ID: 0

Read mode : SecureUtilize accurate stream : YesDefeat audio cache : YesMake use of C2 pointers : No

Read offset correction : 48Overread into Lead-In and Lead-Out : NoFill up missing offset samples with silence : YesDelete leading and trailing silent blocks : NoNull samples used in CRC calculations : YesUsed interface : Native Win32 interface for Win NT & 2000

Used output format : User Defined EncoderSelected bitrate : 768 kBit/sQuality : HighAdd ID3 tag : NoCommand line compressor : D:\Program Files (x86)\Exact Audio Copy\FLAC\FLAC.EXEAdditional command line options : -6 -V -T "ARTIST=%a" -T "TITLE=%t" -T "ALBUM=%g" -T "DATE=%y" -T "TRACKNUMBER=%n" -T "GENRE=%m" -T "COMMENT=%e" %s -o %d

TOC of the extracted CD

Track | Start | Length | Start sector | End sector --------------------------------------------------------- 1 | 0:00.00 | 2:43.47 | 0 | 12271 2 | 2:43.47 | 2:41.70 | 12272 | 24416 3 | 5:25.42 | 2:22.20 | 24417 | 35086 4 | 7:47.62 | 2:38.43 | 35087 | 46979 5 | 10:26.30 | 2:21.32 | 46980 | 57586 6 | 12:47.62 | 2:48.35 | 57587 | 70221 7 | 15:36.22 | 2:49.28 | 70222 | 82924 8 | 18:25.50 | 2:11.20 | 82925 | 92769 9 | 20:36.70 | 2:35.32 | 92770 | 104426 10 | 23:12.27 | 2:37.40 | 104427 | 116241 11 | 25:49.67 | 2:22.10 | 116242 | 126901 12 | 28:12.02 | 3:03.15 | 126902 | 140641 13 | 31:15.17 | 2:47.18 | 140642 | 153184 14 | 34:02.35 | 3:16.00 | 153185 | 167884

Range status and errors

Selected range

Filename F:\lossless\Dion\2005 - The Essential Dion\Dion - The Essential Dion.wav

Peak level 100.0 % Range quality 99.9 % Test CRC 1A924B39 Copy CRC 1A924B39 Copy OK

No errors occurred

AccurateRip summary

Track 1 accurately ripped (confidence 8) [AEA320A2]Track 2 accurately ripped (confidence 8) [38034FD9]Track 3 accurately ripped (confidence 8) [EF7C6295]Track 4 accurately ripped (confidence 7) [EB3FA154]Track 5 accurately ripped (confidence 8) [94ECA038]Track 6 accurately ripped (confidence 8) [C6168776]Track 7 accurately ripped (confidence 8) [9D64277F]Track 8 accurately ripped (confidence 8) [DAAE7C71]Track 9 accurately ripped (confidence 7) [6323343D]Track 10 accurately ripped (confidence 8) [20BB6CBD]Track 11 accurately ripped (confidence 8) [E3245714]Track 12 accurately ripped (confidence 7) [8DFBF762]Track 13 accurately ripped (confidence 8) [BD8D7A92]Track 14 accurately ripped (confidence 7) [129A5303]

All tracks accurately ripped

End of status report
The Essential Dion showcases 14 cuts, all of them either major or minor Dion hits. This set has all the number ones from Laurie and Columbia -- the aforementioned as well as "Ruby Baby," "Drip Drop" and "Abraham, Martin and John," and contains the first-ever CD release of "No One's Waiting for Me," for those who would have resisted another Dion collection otherwise.
Recording Date: 1961-1968.


Трекер:  [ 11-Ноя-2012 17:56 ]

  

Скачать .torrent

Размер .torrent файла 13 KB


Размер: 165 MB
Хэш (hash) релиза: fd40d5996a8b986d608967f41afbf51d272575a3

Еще никто не оставлял запись к записи скачать торрент Dion - The Essential Dion - 2005, FLAC . Будь первым!

!Обратная связь