Скачать через торрент музыку The Dovells - The Best Of The Dovells: Cameo Parkway 1961-1965 - 2005, FLAC бесплатно без регистрации torrent

Если у вас наблюдаются проблемы со скриншотами, переходом по ссылками, скачиванием торрентов - проблемы в блокировщике рекламы AdBlock. #хорошегоДня!


Статистика раздачи
Размер:  273 MB   |    Зарегистрирован:  4 года 9 месяцев   |    .torrent скачан:  3 раза   |   
Раздают:  1  
   
Загрузка...
 
Автор Сообщение

Galfimbul

avatar Galfimbul


The Dovells / The Best Of The Dovells: Cameo Parkway 1961-1965

Жанр: Rock & Roll, Doo Wop, Early Pop/Rock
Страна-производитель диска: Canada
Год издания диска: 2005
Издатель (лейбл): ABKCO Music & Records
Номер по каталогу: 18771-92262
Страна: USA
Аудиокодек: FLAC (*.flac)
Тип рипа: image+.cue
Битрейт аудио: lossless
Продолжительность: 51:38
Источник (релизер): Рип с компакт диска из моей коллекции
Наличие сканов в содержимом раздачи: да

Треклист:
01. Bristol Stomp
02. No, No, No
03. Foot Stompin'
04. Mope-Itty Mope
05. Do The New Continental
06. The Actor
07. Bristol Twistin' Annie
08. Hully Gully Baby
09. Your Last Chance
10. Kissin' In The Kitchen
11. The Jitterbug
12. You Can't Sit Down
13. Baby Workout
14. Hey Beautiful
15. Betty In Bermudas
16. Dance The Froog
17. Stop Monkeyin' Around
18. Don't Come Back -- Len Barry
19. Little White House -- Len Barry
20. Hearts Are Trump -- Len Barry
21. 1-2-3 -- Len Barry
Exact Audio Copy V1.0 beta 1 from 15. November 2010

EAC extraction logfile from 6. August 2011, 18:20

The Dovells / The Best Of The Dovells: Cameo Parkway 1961-1965

Used drive : Optiarc DVD RW AD-7241S Adapter: 5 ID: 0

Read mode : SecureUtilize accurate stream : YesDefeat audio cache : YesMake use of C2 pointers : No

Read offset correction : 48Overread into Lead-In and Lead-Out : NoFill up missing offset samples with silence : YesDelete leading and trailing silent blocks : NoNull samples used in CRC calculations : YesUsed interface : Native Win32 interface for Win NT & 2000

Used output format : User Defined EncoderSelected bitrate : 768 kBit/sQuality : HighAdd ID3 tag : NoCommand line compressor : D:\Program Files (x86)\Exact Audio Copy\FLAC\FLAC.EXEAdditional command line options : -6 -V -T "ARTIST=%a" -T "TITLE=%t" -T "ALBUM=%g" -T "DATE=%y" -T "TRACKNUMBER=%n" -T "GENRE=%m" -T "COMMENT=%e" %j--picture="%i"%j %s -o %d

TOC of the extracted CD

Track | Start | Length | Start sector | End sector --------------------------------------------------------- 1 | 0:00.00 | 2:21.22 | 0 | 10596 2 | 2:21.22 | 2:42.00 | 10597 | 22746 3 | 5:03.22 | 2:27.58 | 22747 | 33829 4 | 7:31.05 | 2:18.32 | 33830 | 44211 5 | 9:49.37 | 2:39.65 | 44212 | 56201 6 | 12:29.27 | 2:43.55 | 56202 | 68481 7 | 15:13.07 | 2:16.48 | 68482 | 78729 8 | 17:29.55 | 2:34.27 | 78730 | 90306 9 | 20:04.07 | 2:37.10 | 90307 | 102091 10 | 22:41.17 | 2:27.08 | 102092 | 113124 11 | 25:08.25 | 2:17.72 | 113125 | 123471 12 | 27:26.22 | 2:20.65 | 123472 | 134036 13 | 29:47.12 | 2:54.45 | 134037 | 147131 14 | 32:41.57 | 2:32.60 | 147132 | 158591 15 | 35:14.42 | 2:28.28 | 158592 | 169719 16 | 37:42.70 | 2:28.02 | 169720 | 180821 17 | 40:10.72 | 2:11.55 | 180822 | 190701 18 | 42:22.52 | 2:22.00 | 190702 | 201351 19 | 44:44.52 | 2:13.35 | 201352 | 211361 20 | 46:58.12 | 2:27.05 | 211362 | 222391 21 | 49:25.17 | 2:21.63 | 222392 | 233029

Range status and errors

Selected range

Filename F:\lossless\The Dovells\2005 - The Best Of The Dovells- Cameo Parkway 1961-1965\The Dovells - The Best Of The Dovells- Cameo Parkway 1961-1965.wav

Peak level 99.8 % Extraction speed 0.1 X Range quality 99.9 % Test CRC 883D62F4 Copy CRC 883D62F4 Copy OK

No errors occurred

AccurateRip summary

Track 1 accurately ripped (confidence 4) [8ADA8EDE]Track 2 accurately ripped (confidence 4) [A17E5299]Track 3 accurately ripped (confidence 4) [3D0DB988]Track 4 accurately ripped (confidence 4) [AA5F8E2E]Track 5 accurately ripped (confidence 4) [87C99A58]Track 6 accurately ripped (confidence 4) [7BD9ED43]Track 7 accurately ripped (confidence 4) [03AEA43C]Track 8 accurately ripped (confidence 4) [5B6695F8]Track 9 accurately ripped (confidence 4) [A5B9F80C]Track 10 accurately ripped (confidence 4) [0B6F84C2]Track 11 accurately ripped (confidence 4) [633875BE]Track 12 accurately ripped (confidence 4) [94B79747]Track 13 accurately ripped (confidence 4) [DAF1AF06]Track 14 accurately ripped (confidence 4) [CF0BA4D8]Track 15 accurately ripped (confidence 4) [4DCA78D6]Track 16 accurately ripped (confidence 4) [2381F8DB]Track 17 accurately ripped (confidence 4) [8E6DE408]Track 18 accurately ripped (confidence 4) [2A257A48]Track 19 accurately ripped (confidence 4) [243C046C]Track 20 accurately ripped (confidence 4) [CF9F9F37]Track 21 accurately ripped (confidence 4) [7BCF909A]

All tracks accurately ripped

End of status report
REM GENRE "Early Pop/Rock"REM DATE 2005REM DISCID 170C2315REM COMMENT "ExactAudioCopy v1.0b1"PERFORMER "The Dovells"TITLE "The Best Of The Dovells: Cameo Parkway 1961-1965"FILE "The Dovells - The Best Of The Dovells- Cameo Parkway 1961-1965.flac" WAVE TRACK 01 AUDIO TITLE "Bristol Stomp" PERFORMER "The Dovells" INDEX 01 00:00:00 TRACK 02 AUDIO TITLE "No, No, No" PERFORMER "The Dovells" INDEX 00 02:18:67 INDEX 01 02:21:22 TRACK 03 AUDIO TITLE "Foot Stompin'" PERFORMER "The Dovells" INDEX 00 05:01:10 INDEX 01 05:03:22 TRACK 04 AUDIO TITLE "Mope-Itty Mope" PERFORMER "The Dovells" INDEX 00 07:29:30 INDEX 01 07:31:05 TRACK 05 AUDIO TITLE "Do The New Continental" PERFORMER "The Dovells" INDEX 00 09:47:12 INDEX 01 09:49:37 TRACK 06 AUDIO TITLE "The Actor" PERFORMER "The Dovells" INDEX 00 12:26:62 INDEX 01 12:29:27 TRACK 07 AUDIO TITLE "Bristol Twistin' Annie" PERFORMER "The Dovells" INDEX 00 15:11:27 INDEX 01 15:13:07 TRACK 08 AUDIO TITLE "Hully Gully Baby" PERFORMER "The Dovells" INDEX 00 17:27:47 INDEX 01 17:29:55 TRACK 09 AUDIO TITLE "Your Last Chance" PERFORMER "The Dovells" INDEX 00 20:02:67 INDEX 01 20:04:07 TRACK 10 AUDIO TITLE "Kissin' In The Kitchen" PERFORMER "The Dovells" INDEX 00 22:39:57 INDEX 01 22:41:17 TRACK 11 AUDIO TITLE "The Jitterbug" PERFORMER "The Dovells" INDEX 00 25:06:17 INDEX 01 25:08:25 TRACK 12 AUDIO TITLE "You Can't Sit Down" PERFORMER "The Dovells" INDEX 00 27:24:27 INDEX 01 27:26:22 TRACK 13 AUDIO TITLE "Baby Workout" PERFORMER "The Dovells" INDEX 00 29:45:50 INDEX 01 29:47:12 TRACK 14 AUDIO TITLE "Hey Beautiful" PERFORMER "The Dovells" INDEX 00 32:39:37 INDEX 01 32:41:57 TRACK 15 AUDIO TITLE "Betty In Bermudas" PERFORMER "The Dovells" INDEX 00 35:12:47 INDEX 01 35:14:42 TRACK 16 AUDIO TITLE "Dance The Froog" PERFORMER "The Dovells" INDEX 00 37:40:40 INDEX 01 37:42:70 TRACK 17 AUDIO TITLE "Stop Monkeyin' Around" PERFORMER "The Dovells" INDEX 00 40:09:20 INDEX 01 40:10:72 TRACK 18 AUDIO TITLE "Don't Come Back" PERFORMER "The Dovells" INDEX 00 42:20:40 INDEX 01 42:22:52 TRACK 19 AUDIO TITLE "Little White House" PERFORMER "The Dovells" INDEX 00 44:42:67 INDEX 01 44:44:52 TRACK 20 AUDIO TITLE "Hearts Are Trump" PERFORMER "The Dovells" INDEX 00 46:55:70 INDEX 01 46:58:12 TRACK 21 AUDIO TITLE "1-2-3" PERFORMER "The Dovells" INDEX 00 49:23:12 INDEX 01 49:25:17


Трекер:  [ 11-Ноя-2012 17:56 ]

  

Скачать .torrent

Размер .torrent файла 11 KB


Размер: 273 MB
Хэш (hash) релиза: 28c747a3e25d67ee2066369af19a6f22e60279d6

Еще никто не оставлял запись к записи скачать торрент The Dovells - The Best Of The Dovells: Cameo Parkway 1961-1965 - 2005, FLAC . Будь первым!

!Обратная связь