Скачать через торрент музыку The Dixie Cups - The Complete Red Bird Recordings - 2002, FLAC бесплатно без регистрации torrent

Если у вас наблюдаются проблемы со скриншотами, переходом по ссылками, скачиванием торрентов - проблемы в блокировщике рекламы AdBlock. #хорошегоДня!


Статистика раздачи
Размер:  261 MB   |    Зарегистрирован:  4 года 9 месяцев   |    .torrent скачан:  14 раз   |   
Раздают:  1  
   
Загрузка...
 
Автор Сообщение

Galfimbul

avatar Galfimbul


The Dixie Cups / The Complete Red Bird Recordings

Жанр: Girl Groups, Early Pop/Rock
Страна-производитель диска: USA
Год издания диска: 2002
Издатель (лейбл): Varèse Sarabande Records
Номер по каталогу: 302 066 375 2
Страна: USA
Аудиокодек: FLAC (*.flac)
Тип рипа: image+.cue
Битрейт аудио: lossless
Продолжительность: 45:14
Источник (релизер): Компакт диск из моей коллекции

Треклист:
01. Chapel Of Love
02. Gee The Moon Is Shining Bright
03. I'm Gonna Get You Yet
04. Girls Can Tell
05. All Grown Up
06. Iko Iko
07. Gee Baby Gee
08. Ain't That Nice
09. People Say
10. Little Bell
11. No True Love
12. You Should Have Seen The Way He Looked At Me
13. Another Boy Like Mine
14. Thank You Mama, Thank You Papa
15. Wrong Direction
16. Gee The Moon Is Shining Bright [Mono Single Version]
17. People Say [Alternate Version]
18. Iko Iko [A Capella Alternate Version]
Exact Audio Copy V1.0 beta 1 from 15. November 2010

EAC extraction logfile from 6. September 2011, 23:38

The Dixie Cups / The Complete Red Bird Recordings

Used drive : Optiarc DVD RW AD-7241S Adapter: 5 ID: 0

Read mode : SecureUtilize accurate stream : YesDefeat audio cache : YesMake use of C2 pointers : No

Read offset correction : 48Overread into Lead-In and Lead-Out : NoFill up missing offset samples with silence : YesDelete leading and trailing silent blocks : NoNull samples used in CRC calculations : YesUsed interface : Native Win32 interface for Win NT & 2000

Used output format : User Defined EncoderSelected bitrate : 768 kBit/sQuality : HighAdd ID3 tag : NoCommand line compressor : D:\Program Files (x86)\Exact Audio Copy\FLAC\FLAC.EXEAdditional command line options : -6 -V -T "ARTIST=%a" -T "TITLE=%t" -T "ALBUM=%g" -T "DATE=%y" -T "TRACKNUMBER=%n" -T "GENRE=%m" -T "COMMENT=%e" %j--picture="%i"%j %s -o %d

TOC of the extracted CD

Track | Start | Length | Start sector | End sector --------------------------------------------------------- 1 | 0:00.00 | 2:48.37 | 0 | 12636 2 | 2:48.37 | 2:21.55 | 12637 | 23266 3 | 5:10.17 | 2:41.15 | 23267 | 35356 4 | 7:51.32 | 2:50.35 | 35357 | 48141 5 | 10:41.67 | 2:18.28 | 48142 | 58519 6 | 13:00.20 | 2:07.15 | 58520 | 68059 7 | 15:07.35 | 2:45.60 | 68060 | 80494 8 | 17:53.20 | 2:19.57 | 80495 | 90976 9 | 20:13.02 | 2:25.23 | 90977 | 101874 10 | 22:38.25 | 2:46.55 | 101875 | 114379 11 | 25:25.05 | 2:36.35 | 114380 | 126114 12 | 28:01.40 | 2:31.70 | 126115 | 137509 13 | 30:33.35 | 2:54.35 | 137510 | 150594 14 | 33:27.70 | 2:40.72 | 150595 | 162666 15 | 36:08.67 | 2:00.40 | 162667 | 171706 16 | 38:09.32 | 2:18.13 | 171707 | 182069 17 | 40:27.45 | 2:42.30 | 182070 | 194249 18 | 43:10.00 | 2:11.70 | 194250 | 204144

Range status and errors

Selected range

Filename F:\lossless\The Dixie Cups\2002 - The Complete Red Bird Recordings\The Dixie Cups - The Complete Red Bird Recordings.wav

Peak level 98.8 % Extraction speed 0.1 X Range quality 99.9 % Test CRC 4D214009 Copy CRC 4D214009 Copy OK

No errors occurred

AccurateRip summary

Track 1 accurately ripped (confidence 2) [C7E1DC3A]Track 2 accurately ripped (confidence 2) [52B09D7C]Track 3 accurately ripped (confidence 2) [E311E7D9]Track 4 accurately ripped (confidence 2) [5E6CB11E]Track 5 accurately ripped (confidence 2) [79C7BAE5]Track 6 accurately ripped (confidence 2) [BFC28B4D]Track 7 accurately ripped (confidence 2) [6DE21D69]Track 8 accurately ripped (confidence 2) [C7122B83]Track 9 accurately ripped (confidence 2) [4E9E44E4]Track 10 accurately ripped (confidence 2) [044EA5A3]Track 11 accurately ripped (confidence 2) [E51C0E88]Track 12 accurately ripped (confidence 2) [BB6F1652]Track 13 accurately ripped (confidence 2) [97BDE8D2]Track 14 accurately ripped (confidence 2) [C7023B8F]Track 15 accurately ripped (confidence 2) [3EECA555]Track 16 accurately ripped (confidence 2) [DD324F7D]Track 17 accurately ripped (confidence 2) [CE37AFD3]Track 18 accurately ripped (confidence 2) [65BF981E]

All tracks accurately ripped

End of status report
REM GENRE "Early Pop/Rock"REM DATE 2002REM DISCID E60AA112REM COMMENT "ExactAudioCopy v1.0b1"PERFORMER "The Dixie Cups"TITLE "The Complete Red Bird Recordings"FILE "The Dixie Cups - The Complete Red Bird Recordings.flac" WAVE TRACK 01 AUDIO TITLE "Chapel Of Love" PERFORMER "The Dixie Cups" INDEX 01 00:00:00 TRACK 02 AUDIO TITLE "Gee The Moon Is Shining Bright" PERFORMER "The Dixie Cups" INDEX 00 02:46:32 INDEX 01 02:48:37 TRACK 03 AUDIO TITLE "I'm Gonna Get You Yet" PERFORMER "The Dixie Cups" INDEX 00 05:08:12 INDEX 01 05:10:17 TRACK 04 AUDIO TITLE "Girls Can Tell" PERFORMER "The Dixie Cups" INDEX 00 07:49:27 INDEX 01 07:51:32 TRACK 05 AUDIO TITLE "All Grown Up" PERFORMER "The Dixie Cups" INDEX 00 10:39:62 INDEX 01 10:41:67 TRACK 06 AUDIO TITLE "Iko Iko" PERFORMER "The Dixie Cups" INDEX 00 12:58:15 INDEX 01 13:00:20 TRACK 07 AUDIO TITLE "Gee Baby Gee" PERFORMER "The Dixie Cups" INDEX 00 15:05:30 INDEX 01 15:07:35 TRACK 08 AUDIO TITLE "Ain't That Nice" PERFORMER "The Dixie Cups" INDEX 00 17:51:15 INDEX 01 17:53:20 TRACK 09 AUDIO TITLE "People Say" PERFORMER "The Dixie Cups" INDEX 00 20:10:72 INDEX 01 20:13:02 TRACK 10 AUDIO TITLE "Little Bell" PERFORMER "The Dixie Cups" INDEX 00 22:36:20 INDEX 01 22:38:25 TRACK 11 AUDIO TITLE "No True Love" PERFORMER "The Dixie Cups" INDEX 00 25:22:62 INDEX 01 25:25:05 TRACK 12 AUDIO TITLE "You Should Have Seen The Way He Looked At Me" PERFORMER "The Dixie Cups" INDEX 00 27:59:37 INDEX 01 28:01:40 TRACK 13 AUDIO TITLE "Another Boy Like Mine" PERFORMER "The Dixie Cups" INDEX 00 30:31:32 INDEX 01 30:33:35 TRACK 14 AUDIO TITLE "Thank You Mama, Thank You Papa" PERFORMER "The Dixie Cups" INDEX 00 33:25:67 INDEX 01 33:27:70 TRACK 15 AUDIO TITLE "Wrong Direction" PERFORMER "The Dixie Cups" INDEX 00 36:06:62 INDEX 01 36:08:67 TRACK 16 AUDIO TITLE "Gee The Moon Is Shining Bright [Mono Single Version]" PERFORMER "The Dixie Cups" INDEX 00 38:07:30 INDEX 01 38:09:32 TRACK 17 AUDIO TITLE "People Say [Alternate Version]" PERFORMER "The Dixie Cups" INDEX 00 40:25:40 INDEX 01 40:27:45 TRACK 18 AUDIO TITLE "Iko Iko [A Capella Alternate Version]" PERFORMER "The Dixie Cups" INDEX 00 43:07:72 INDEX 01 43:10:00
Recording Date: 1964-1965.


Трекер:  [ 11-Ноя-2012 17:56 ]

  

Скачать .torrent

Размер .torrent файла 11 KB


Размер: 261 MB
Хэш (hash) релиза: 552db30715cf9cc00dced47680cf725e47fc469e

Еще никто не оставлял запись к записи скачать торрент The Dixie Cups - The Complete Red Bird Recordings - 2002, FLAC . Будь первым!

!Обратная связь