Скачать через торрент музыку Casey Sisters & The Salt Flat Stompers - Whos Crying Now? - 2000, FLAC бесплатно без регистрации torrent

Если у вас наблюдаются проблемы со скриншотами, переходом по ссылками, скачиванием торрентов - проблемы в блокировщике рекламы AdBlock. #хорошегоДня!


Статистика раздачи
Размер:  152 MB   |    Зарегистрирован:  4 года 9 месяцев   |    .torrent скачан:  9 раз   |   
Раздают:  1  
   
Загрузка...
 
Автор Сообщение

Galfimbul

avatar Galfimbul


Casey Sisters & The Salt Flat Stompers / Who's Crying Now?

Жанр: Rockabilly Revival, Rock & Roll, Country
Страна-производитель диска: Sweden
Год издания диска: 2000
Издатель (лейбл): Tail Records
Номер по каталогу: TRCD 108
Страна: USA
Аудиокодек: FLAC (*.flac)
Тип рипа: image+.cue
Битрейт аудио: lossless
Продолжительность: 36:56
Источник (релизер): Компакт диск из моей коллекции
Наличие сканов в содержимом раздачи: да

Треклист:
01. Boy Crazy
02. Set My Soul On Fire
03. You Can't Have Him
04. Kee-Ro-Ryin'
05. Real Gone Jive
06. You'll Be Sorry Someday
07. Stop, Look, And Listen
08. Jump Jive Party
09. Done Gone
10. Funny, Honey
11. I'll Find Somebody Better
12. Let's Go
13. Why Doesn't My Heart Flip
14. You Lied
15. One Scotch, One Bourbon, One Beer
16. Hokey Pokey Rock
Exact Audio Copy V1.0 beta 1 from 15. November 2010

EAC extraction logfile from 20. August 2011, 21:04

Casey Sisters & The Salt Flat Stompers / Who's Crying Now?

Used drive : Optiarc DVD RW AD-7241S Adapter: 5 ID: 0

Read mode : SecureUtilize accurate stream : YesDefeat audio cache : YesMake use of C2 pointers : No

Read offset correction : 48Overread into Lead-In and Lead-Out : NoFill up missing offset samples with silence : YesDelete leading and trailing silent blocks : NoNull samples used in CRC calculations : YesUsed interface : Native Win32 interface for Win NT & 2000

Used output format : User Defined EncoderSelected bitrate : 768 kBit/sQuality : HighAdd ID3 tag : NoCommand line compressor : D:\Program Files (x86)\Exact Audio Copy\FLAC\FLAC.EXEAdditional command line options : -6 -V -T "ARTIST=%a" -T "TITLE=%t" -T "ALBUM=%g" -T "DATE=%y" -T "TRACKNUMBER=%n" -T "GENRE=%m" -T "COMMENT=%e" %j--picture="%i"%j %s -o %d

TOC of the extracted CD

Track | Start | Length | Start sector | End sector --------------------------------------------------------- 1 | 0:00.00 | 2:21.72 | 0 | 10646 2 | 2:21.72 | 2:22.74 | 10647 | 21370 3 | 4:44.71 | 2:08.73 | 21371 | 31043 4 | 6:53.69 | 2:08.67 | 31044 | 40710 5 | 9:02.61 | 2:23.71 | 40711 | 51506 6 | 11:26.57 | 1:55.06 | 51507 | 60137 7 | 13:21.63 | 2:11.08 | 60138 | 69970 8 | 15:32.71 | 2:38.61 | 69971 | 81881 9 | 18:11.57 | 2:17.12 | 81882 | 92168 10 | 20:28.69 | 2:34.05 | 92169 | 103723 11 | 23:02.74 | 1:47.38 | 103724 | 111786 12 | 24:50.37 | 2:00.21 | 111787 | 120807 13 | 26:50.58 | 2:52.28 | 120808 | 133735 14 | 29:43.11 | 2:00.70 | 133736 | 142805 15 | 31:44.06 | 2:26.61 | 142806 | 153816 16 | 34:10.67 | 2:49.59 | 153817 | 166550

Range status and errors

Selected range

Filename F:\lossless\Casey Sisters & The Salt Flat Stompers\2000 - Who's Crying Now\Casey Sisters & The Salt Flat Stompers - Who's Crying Now.wav

Peak level 93.6 % Extraction speed 0.2 X Range quality 100.0 % Test CRC 7DB32890 Copy CRC 7DB32890 Copy OK

No errors occurred

AccurateRip summary

Track 1 not present in databaseTrack 2 not present in databaseTrack 3 not present in databaseTrack 4 not present in databaseTrack 5 not present in databaseTrack 6 not present in databaseTrack 7 not present in databaseTrack 8 not present in databaseTrack 9 not present in databaseTrack 10 not present in databaseTrack 11 not present in databaseTrack 12 not present in databaseTrack 13 not present in databaseTrack 14 not present in databaseTrack 15 not present in databaseTrack 16 not present in database

None of the tracks are present in the AccurateRip database

End of status report
Recorded in August 2000 at Tail studio, Jönköping, Sweden.


Трекер:  [ 11-Ноя-2012 17:56 ]

  

Скачать .torrent

Размер .torrent файла 13 KB


Размер: 152 MB
Хэш (hash) релиза: 14872310d6a558918dd0286c628efb76b90fc830

Еще никто не оставлял запись к записи скачать торрент Casey Sisters & The Salt Flat Stompers - Whos Crying Now? - 2000, FLAC . Будь первым!

!Обратная связь