Скачать через торрент музыку Casey Sisters & The Salt Flat Stompers - Crazy Spree - 2002, FLAC бесплатно без регистрации torrent

Если у вас наблюдаются проблемы со скриншотами, переходом по ссылками, скачиванием торрентов - проблемы в блокировщике рекламы AdBlock. #хорошегоДня!


Статистика раздачи
Размер:  155 MB   |    Зарегистрирован:  4 года 9 месяцев   |    .torrent скачан:  9 раз   |   
Раздают:  1  
   
Загрузка...
 
Автор Сообщение

Galfimbul

avatar Galfimbul


Casey Sisters & The Salt Flat Stompers / Crazy Spree

Жанр: Rockabilly Revival, Rock & Roll, Country
Страна-производитель диска: Sweden
Год издания диска: 2002
Издатель (лейбл): Tail Records
Номер по каталогу: TRCD 115
Страна: USA
Аудиокодек: FLAC (*.flac)
Тип рипа: image+.cue
Битрейт аудио: lossless
Продолжительность: 34:02
Источник (релизер): Компакт диск из моей коллекции
Наличие сканов в содержимом раздачи: да

Треклист:
01. Crazy Spree
02. That's What I Need
03. Too Late To Rock
04. By And By
05. My Love Rolls On
06. Four Little Sparrows
07. I Can't Find The Doorknob
08. Dancing Teardrops
09. Baby Me
10. Your New Baby
11. Still, I'm Thinking Of You
12. Don't Sweep Me Under The Rug
13. Twelve O'Clock
14. Two Nights, Two Days
15. Crizzly Bear Stomp
16. Number One Man
Exact Audio Copy V1.0 beta 1 from 15. November 2010

EAC extraction logfile from 20. August 2011, 22:34

Casey Sisters & The Salt Flat Stompers / Crazy Spree

Used drive : Optiarc DVD RW AD-7241S Adapter: 5 ID: 0

Read mode : SecureUtilize accurate stream : YesDefeat audio cache : YesMake use of C2 pointers : No

Read offset correction : 48Overread into Lead-In and Lead-Out : NoFill up missing offset samples with silence : YesDelete leading and trailing silent blocks : NoNull samples used in CRC calculations : YesUsed interface : Native Win32 interface for Win NT & 2000

Used output format : User Defined EncoderSelected bitrate : 768 kBit/sQuality : HighAdd ID3 tag : NoCommand line compressor : D:\Program Files (x86)\Exact Audio Copy\FLAC\FLAC.EXEAdditional command line options : -6 -V -T "ARTIST=%a" -T "TITLE=%t" -T "ALBUM=%g" -T "DATE=%y" -T "TRACKNUMBER=%n" -T "GENRE=%m" -T "COMMENT=%e" %j--picture="%i"%j %s -o %d

TOC of the extracted CD

Track | Start | Length | Start sector | End sector --------------------------------------------------------- 1 | 0:00.00 | 2:19.18 | 0 | 10442 2 | 2:19.18 | 1:37.04 | 10443 | 17721 3 | 3:56.22 | 1:53.41 | 17722 | 26237 4 | 5:49.63 | 1:55.67 | 26238 | 34929 5 | 7:45.55 | 1:48.11 | 34930 | 43040 6 | 9:33.66 | 2:25.56 | 43041 | 53971 7 | 11:59.47 | 2:10.27 | 53972 | 63748 8 | 14:09.74 | 2:42.01 | 63749 | 75899 9 | 16:52.00 | 2:13.12 | 75900 | 85886 10 | 19:05.12 | 2:01.12 | 85887 | 94973 11 | 21:06.24 | 3:14.02 | 94974 | 109525 12 | 24:20.26 | 2:03.50 | 109526 | 118800 13 | 26:24.01 | 2:19.57 | 118801 | 129282 14 | 28:43.58 | 1:37.05 | 129283 | 136562 15 | 30:20.63 | 1:51.73 | 136563 | 144960 16 | 32:12.61 | 1:54.17 | 144961 | 153527

Range status and errors

Selected range

Filename F:\lossless\Casey Sisters & The Salt Flat Stompers\2002 - Crazy Spree\Casey Sisters & The Salt Flat Stompers - Crazy Spree.wav

Peak level 100.0 % Extraction speed 0.1 X Range quality 100.0 % Test CRC E1C5E37A Copy CRC E1C5E37A Copy OK

No errors occurred

AccurateRip summary

Track 1 not present in databaseTrack 2 not present in databaseTrack 3 not present in databaseTrack 4 not present in databaseTrack 5 not present in databaseTrack 6 not present in databaseTrack 7 not present in databaseTrack 8 not present in databaseTrack 9 not present in databaseTrack 10 not present in databaseTrack 11 not present in databaseTrack 12 not present in databaseTrack 13 not present in databaseTrack 14 not present in databaseTrack 15 not present in databaseTrack 16 not present in database

None of the tracks are present in the AccurateRip database

End of status report
Recorded at Tail studio in 2001.


Трекер:  [ 11-Ноя-2012 17:56 ]

  

Скачать .torrent

Размер .torrent файла 13 KB


Размер: 155 MB
Хэш (hash) релиза: 4e968bebe5be6c38a7d75bab75b71531f2b01a77

Еще никто не оставлял запись к записи скачать торрент Casey Sisters & The Salt Flat Stompers - Crazy Spree - 2002, FLAC . Будь первым!

!Обратная связь