Скачать через торрент музыку Phil Spector - Wall Of Sound: The Very Best Of Phil Spector 1961-1966 - 2011, FLAC бесплатно без регистрации torrent

Если у вас наблюдаются проблемы со скриншотами, переходом по ссылками, скачиванием торрентов - проблемы в блокировщике рекламы AdBlock. #хорошегоДня!


Статистика раздачи
Размер:  242 MB   |    Зарегистрирован:  4 года 11 месяцев   |    .torrent скачан:  5 раз   |   
Раздают:  1  
   
Загрузка...
 
Автор Сообщение

Galfimbul

avatar Galfimbul


Phil Spector / Wall Of Sound: The Very Best Of Phil Spector 1961-1966

Жанр: Rhythm & Blues, Brill Building Pop, Girl Groups, Early Pop/Rock
Страна-производитель диска: USA
Год издания диска: 2011
Издатель (лейбл): Phil Spector Records/Legacy
Номер по каталогу: 88697 61294 2
Страна: USA
Аудиокодек: FLAC (*.flac)
Тип рипа: image+.cue
Битрейт аудио: lossless
Продолжительность: 53:41
Источник (релизер): Рип с компакт диска из моей коллекции
Наличие сканов в содержимом раздачи: да

Треклист:
01. He's A Rebel -- The Crystals
02. Da Doo Ron Ron -- The Crystals
03. Be My Baby -- The Ronettes
04. Then He Kissed Me -- The Crystals
05. (Today I Met) The Boy I'm Gonna Marry -- Darlene Love
06. Baby, I Love You -- The Ronettes
07. He's Sure The Boy I Love -- The Crystals
08. Zip-A-Dee-Doo-Dah -- Bob B. Soxx And The Blue Jeans
09. Wait Til' My Bobby Gets Home -- Darlene Love
10. Walking In The Rain -- The Ronettes
11. Uptown -- The Crystals
12. Why Do Lovers Break Each Others Hearts? -- Bob B. Soxx And The Blue Jeans
13. Do I Love You? -- The Ronettes
14. A Fine, Fine Boy -- Darlene Love
15. There's No Other Like My Baby -- The Crystals
16. You've Lost That Lovin' Feeling -- The Righteous Brothers
17. (The Best Part Of) Breakin' Up -- The Ronettes
18. Not Too Young To Get Married -- Bob B. Soxx And The Blue Jeans
19. River Deep, Mountain High -- Ike & Tina Turner
Exact Audio Copy V1.0 beta 1 from 15. November 2010

EAC extraction logfile from 25. September 2011, 1:56

Various / Wall Of Sound: The Very Best Of Phil Spector 1961-1966

Used drive : Optiarc DVD RW AD-7241S Adapter: 5 ID: 0

Read mode : SecureUtilize accurate stream : YesDefeat audio cache : YesMake use of C2 pointers : No

Read offset correction : 48Overread into Lead-In and Lead-Out : NoFill up missing offset samples with silence : YesDelete leading and trailing silent blocks : NoNull samples used in CRC calculations : YesUsed interface : Native Win32 interface for Win NT & 2000

Used output format : User Defined EncoderSelected bitrate : 768 kBit/sQuality : HighAdd ID3 tag : NoCommand line compressor : D:\Program Files (x86)\Exact Audio Copy\FLAC\FLAC.EXEAdditional command line options : -6 -V -T "ARTIST=%a" -T "TITLE=%t" -T "ALBUM=%g" -T "DATE=%y" -T "TRACKNUMBER=%n" -T "GENRE=%m" -T "COMMENT=%e" %j--picture="%i"%j %s -o %d

TOC of the extracted CD

Track | Start | Length | Start sector | End sector --------------------------------------------------------- 1 | 0:00.00 | 2:32.48 | 0 | 11447 2 | 2:32.48 | 2:22.15 | 11448 | 22112 3 | 4:54.63 | 2:42.59 | 22113 | 34321 4 | 7:37.47 | 2:40.11 | 34322 | 46332 5 | 10:17.58 | 2:48.35 | 46333 | 58967 6 | 13:06.18 | 2:53.23 | 58968 | 71965 7 | 15:59.41 | 2:45.44 | 71966 | 84384 8 | 18:45.10 | 2:51.38 | 84385 | 97247 9 | 21:36.48 | 2:26.50 | 97248 | 108247 10 | 24:03.23 | 3:17.51 | 108248 | 123073 11 | 27:20.74 | 2:22.47 | 123074 | 133770 12 | 29:43.46 | 2:52.05 | 133771 | 146675 13 | 32:35.51 | 2:57.61 | 146676 | 160011 14 | 35:33.37 | 2:48.00 | 160012 | 172611 15 | 38:21.37 | 2:31.34 | 172612 | 183970 16 | 40:52.71 | 3:44.66 | 183971 | 200836 17 | 44:37.62 | 3:06.53 | 200837 | 214839 18 | 47:44.40 | 2:31.30 | 214840 | 226194 19 | 50:15.70 | 3:33.73 | 226195 | 242242

Range status and errors

Selected range

Filename F:\lossless\Phil Spector\2011 - Wall Of Sound- The Very Best Of Phil Spector 1961-1966\Phil Spector - Wall Of Sound- The Very Best Of Phil Spector 1961-1966.wav

Peak level 100.0 % Extraction speed 0.2 X Range quality 100.0 % Test CRC CC329CF9 Copy CRC CC329CF9 Copy OK

No errors occurred

AccurateRip summary

Track 1 accurately ripped (confidence 4) [FD142102]Track 2 accurately ripped (confidence 4) [8D9B9F8F]Track 3 accurately ripped (confidence 4) [5C0D2F47]Track 4 accurately ripped (confidence 4) [968EC500]Track 5 accurately ripped (confidence 4) [71104B67]Track 6 accurately ripped (confidence 4) [198E0831]Track 7 accurately ripped (confidence 4) [875C78FE]Track 8 accurately ripped (confidence 4) [94BCA788]Track 9 accurately ripped (confidence 4) [38F6B14F]Track 10 accurately ripped (confidence 4) [BA06ED88]Track 11 accurately ripped (confidence 4) [9464181B]Track 12 accurately ripped (confidence 4) [C3C0C69F]Track 13 accurately ripped (confidence 4) [F9E27C7C]Track 14 accurately ripped (confidence 4) [72D6493A]Track 15 accurately ripped (confidence 4) [5BDAD74A]Track 16 accurately ripped (confidence 4) [CDB265DB]Track 17 accurately ripped (confidence 4) [C32E2CFE]Track 18 accurately ripped (confidence 4) [E89CF909]Track 19 accurately ripped (confidence 4) [B56CDAA7]

All tracks accurately ripped

End of status report
REM GENRE "Early R&B"REM DATE 2011REM DISCID 270C9D13REM COMMENT "ExactAudioCopy v1.0b1"PERFORMER "Various"TITLE "Wall Of Sound: The Very Best Of Phil Spector 1961-1966"FILE "Phil Spector - Wall Of Sound- The Very Best Of Phil Spector 1961-1966.flac" WAVE TRACK 01 AUDIO TITLE "He's A Rebel" PERFORMER "The Crystals" INDEX 01 00:00:00 TRACK 02 AUDIO TITLE "Da Doo Ron Ron" PERFORMER "The Crystals" INDEX 00 02:31:04 INDEX 01 02:32:48 TRACK 03 AUDIO TITLE "Be My Baby" PERFORMER "The Ronettes" INDEX 00 04:52:57 INDEX 01 04:54:63 TRACK 04 AUDIO TITLE "Then He Kissed Me" PERFORMER "The Crystals" INDEX 00 07:35:56 INDEX 01 07:37:47 TRACK 05 AUDIO TITLE "(Today I Met) The Boy I'm Gonna Marry" PERFORMER "Darlene Love" INDEX 00 10:16:36 INDEX 01 10:17:58 TRACK 06 AUDIO TITLE "Baby, I Love You" PERFORMER "The Ronettes" INDEX 00 13:03:62 INDEX 01 13:06:18 TRACK 07 AUDIO TITLE "He's Sure The Boy I Love" PERFORMER "The Crystals" INDEX 00 15:57:54 INDEX 01 15:59:41 TRACK 08 AUDIO TITLE "Zip-A-Dee-Doo-Dah" PERFORMER "Bob B. Soxx And The Blue Jeans" INDEX 00 18:43:02 INDEX 01 18:45:10 TRACK 09 AUDIO TITLE "Wait Til' My Bobby Gets Home" PERFORMER "Darlene Love" INDEX 00 21:36:03 INDEX 01 21:36:48 TRACK 10 AUDIO TITLE "Walking In The Rain" PERFORMER "The Ronettes" INDEX 00 24:01:53 INDEX 01 24:03:23 TRACK 11 AUDIO TITLE "Uptown" PERFORMER "The Crystals" INDEX 00 27:20:01 INDEX 01 27:20:74 TRACK 12 AUDIO TITLE "Why Do Lovers Break Each Others Hearts?" PERFORMER "Bob B. Soxx And The Blue Jeans" INDEX 00 29:42:16 INDEX 01 29:43:46 TRACK 13 AUDIO TITLE "Do I Love You?" PERFORMER "The Ronettes" INDEX 00 32:33:49 INDEX 01 32:35:51 TRACK 14 AUDIO TITLE "A Fine, Fine Boy" PERFORMER "Darlene Love" INDEX 00 35:31:62 INDEX 01 35:33:37 TRACK 15 AUDIO TITLE "There's No Other Like My Baby" PERFORMER "The Crystals" INDEX 00 38:19:18 INDEX 01 38:21:37 TRACK 16 AUDIO TITLE "You've Lost That Lovin' Feeling" PERFORMER "The Righteous Brothers" INDEX 00 40:51:18 INDEX 01 40:52:71 TRACK 17 AUDIO TITLE "(The Best Part Of) Breakin' Up" PERFORMER "The Ronettes" INDEX 00 44:35:39 INDEX 01 44:37:62 TRACK 18 AUDIO TITLE "Not Too Young To Get Married" PERFORMER "Bob B. Soxx And The Blue Jeans" INDEX 00 47:42:14 INDEX 01 47:44:40 TRACK 19 AUDIO TITLE "River Deep, Mountain High" PERFORMER "Ike & Tina Turner" INDEX 00 50:14:21 INDEX 01 50:15:70
Recording Date: 1961 - 1966.


Трекер:  [ 11-Ноя-2012 17:56 ]

  

Скачать .torrent

Размер .torrent файла 20 KB


Размер: 242 MB
Хэш (hash) релиза: 4e5ff427ecc6132080730c3ede9cd389449bc16c

Еще никто не оставлял запись к записи скачать торрент Phil Spector - Wall Of Sound: The Very Best Of Phil Spector 1961-1966 - 2011, FLAC . Будь первым!

!Обратная связь