Скачать через торрент музыку Frankie Lymon & The Teenagers - 2CD - 1989-2008, FLAC бесплатно без регистрации torrent

Если у вас наблюдаются проблемы со скриншотами, переходом по ссылками, скачиванием торрентов - проблемы в блокировщике рекламы AdBlock. #хорошегоДня!


Статистика раздачи
Размер:  410 MB   |    Зарегистрирован:  4 года 11 месяцев   |    .torrent скачан:  4 раза   |   
Раздают:  1  
   
Загрузка...
 
Автор Сообщение

Galfimbul

avatar Galfimbul


Frankie Lymon & The Teenagers / 2CD



Жанр: Doo Wop, Rhythm & Blues, Rock & Roll
Год издания диска: 1989-2008
Страна: USA
Аудио кодек: FLAC (*.flac)
Тип рипа: image+.cue
Битрейт аудио: lossless
Продолжительность: 2:34:15
Источник (релизер): Компакт диски из моей коллекцииFrankie Lymon & The Teenagers
01. Why Do Fools Fall in Love?
02. Please Be Mine
03. Love Is a Clown
04. Am I Fooling Myself Again
05. I Want You to Be My Girl
06. I'm Not a Know It All
07. Who Can Explain?
08. I Promise to Remember
09. ABC's of Love
10. Share
11. I'm Not a Juvenile Delinquent
12. Baby Baby
13. Paper Castles
14. Teenage Love
15. Out in the Cold Again
16. Goody Goody
17. Creation of Love
18. Thumb Thumb
19. Portable on My Shoulder
20. Little Bitty Pretty One

Издатель (лейбл): Rhino Records
Номер по каталогу: R2 70918
All of the essentials are on this album, which, among its numerous highlights also includes "Love Is a Clown" and the group's later hits, "Little Bitty Pretty One," "Portable on My Shoulder," and "Thumb Thumb."
Exact Audio Copy V0.99 prebeta 5 from 4. May 2009

EAC extraction logfile from 11. December 2010, 23:54

Frankie Lymon & The Teenagers / The Best Of Frankie Lymon & The Teenagers

Used drive : Optiarc DVD RW AD-7241S Adapter: 5 ID: 0

Read mode : SecureUtilize accurate stream : YesDefeat audio cache : YesMake use of C2 pointers : No

Read offset correction : 48Overread into Lead-In and Lead-Out : NoFill up missing offset samples with silence : YesDelete leading and trailing silent blocks : NoNull samples used in CRC calculations : YesUsed interface : Native Win32 interface for Win NT & 2000

Used output format : User Defined EncoderSelected bitrate : 768 kBit/sQuality : HighAdd ID3 tag : NoCommand line compressor : D:\Program Files (x86)\Exact Audio Copy\FLAC\FLAC.EXEAdditional command line options : -6 -V -T "ARTIST=%a" -T "TITLE=%t" -T "ALBUM=%g" -T "DATE=%y" -T "TRACKNUMBER=%n" -T "GENRE=%m" -T "COMMENT=%e" %s -o %d

TOC of the extracted CD

Track | Start | Length | Start sector | End sector --------------------------------------------------------- 1 | 0:00.33 | 2:19.50 | 33 | 10507 2 | 2:20.08 | 3:08.27 | 10508 | 24634 3 | 5:28.35 | 2:52.60 | 24635 | 37594 4 | 8:21.20 | 2:38.20 | 37595 | 49464 5 | 10:59.40 | 2:58.60 | 49465 | 62874 6 | 13:58.25 | 2:50.45 | 62875 | 75669 7 | 16:48.70 | 2:14.68 | 75670 | 85787 8 | 19:03.63 | 2:52.47 | 85788 | 98734 9 | 21:56.35 | 1:57.05 | 98735 | 107514 10 | 23:53.40 | 2:39.15 | 107515 | 119454 11 | 26:32.55 | 2:39.50 | 119455 | 131429 12 | 29:12.30 | 2:06.58 | 131430 | 140937 13 | 31:19.13 | 2:05.55 | 140938 | 150367 14 | 33:24.68 | 2:14.00 | 150368 | 160417 15 | 35:38.68 | 2:27.62 | 160418 | 171504 16 | 38:06.55 | 2:13.20 | 171505 | 181499 17 | 40:20.00 | 2:28.55 | 181500 | 192654 18 | 42:48.55 | 2:19.08 | 192655 | 203087 19 | 45:07.63 | 1:47.47 | 203088 | 211159 20 | 46:55.35 | 2:41.13 | 211160 | 223247

Range status and errors

Selected range

Filename F:\lossless\Frankie Lymon\1989 - The Best Of Frankie Lymon & The Teenagers\Frankie Lymon & The Teenagers - The Best Of Frankie Lymon & The Teenagers.wav

Peak level 100.0 % Range quality 99.9 % Test CRC 8678B74D Copy CRC 8678B74D Copy OK

No errors occurred

AccurateRip summary

Track 1 accurately ripped (confidence 1) [587FD7CC]Track 2 accurately ripped (confidence 1) [6627D1F3]Track 3 accurately ripped (confidence 1) [4E6F7876]Track 4 accurately ripped (confidence 1) [A34B0C01]Track 5 accurately ripped (confidence 1) [A77B6C75]Track 6 accurately ripped (confidence 1) [556240B9]Track 7 accurately ripped (confidence 1) [97D07869]Track 8 accurately ripped (confidence 1) [E292A5A4]Track 9 accurately ripped (confidence 1) [EE3903FF]Track 10 accurately ripped (confidence 1) [1B1890F3]Track 11 accurately ripped (confidence 1) [D6849EB7]Track 12 accurately ripped (confidence 1) [417F279F]Track 13 accurately ripped (confidence 1) [4E27FD70]Track 14 accurately ripped (confidence 1) [460A30A6]Track 15 accurately ripped (confidence 1) [0D27340F]Track 16 accurately ripped (confidence 1) [1660AA84]Track 17 accurately ripped (confidence 1) [56B9EC77]Track 18 accurately ripped (confidence 1) [89EE071A]Track 19 accurately ripped (confidence 1) [E8F57183]Track 20 accurately ripped (confidence 1) [EAAB3809]

All tracks accurately ripped

End of status report
Frankie Lymon
01. Waitin' In School
02. Wake Up Little Susie
03. Silhouettes
04. Next Time You See Me
05. Send For Me
06. It Hurts To Be In Love
07. Jailhouse Rock
08. Diana
09. Buzz Buzz Buzz
10. Seachin'
11. Short Fat Fannie
12. Little Bitty Pretty One

Издатель (лейбл): Collectors' Choice Music
Номер по каталогу: CCM-933
This 1958 Roulette release, his first solo album, captures him at the peak of his powers, before the all-too-familiar music biz cocktail of early fame, cynical management and substance abuse took its toll.
Exact Audio Copy V0.99 prebeta 5 from 4. May 2009

EAC extraction logfile from 12. December 2010, 15:04

Frankie Lymon / Rock 'N Roll

Used drive : Optiarc DVD RW AD-7241S Adapter: 5 ID: 0

Read mode : SecureUtilize accurate stream : YesDefeat audio cache : YesMake use of C2 pointers : No

Read offset correction : 48Overread into Lead-In and Lead-Out : NoFill up missing offset samples with silence : YesDelete leading and trailing silent blocks : NoNull samples used in CRC calculations : YesUsed interface : Native Win32 interface for Win NT & 2000

Used output format : User Defined EncoderSelected bitrate : 768 kBit/sQuality : HighAdd ID3 tag : NoCommand line compressor : D:\Program Files (x86)\Exact Audio Copy\FLAC\FLAC.EXEAdditional command line options : -6 -V -T "ARTIST=%a" -T "TITLE=%t" -T "ALBUM=%g" -T "DATE=%y" -T "TRACKNUMBER=%n" -T "GENRE=%m" -T "COMMENT=%e" %s -o %d

TOC of the extracted CD

Track | Start | Length | Start sector | End sector --------------------------------------------------------- 1 | 0:00.00 | 2:05.24 | 0 | 9398 2 | 2:05.24 | 2:01.32 | 9399 | 18505 3 | 4:06.56 | 2:50.20 | 18506 | 31275 4 | 6:57.01 | 2:40.40 | 31276 | 43315 5 | 9:37.41 | 2:32.43 | 43316 | 54758 6 | 12:10.09 | 2:09.42 | 54759 | 64475 7 | 14:19.51 | 2:16.23 | 64476 | 74698 8 | 16:35.74 | 2:26.03 | 74699 | 85651 9 | 19:02.02 | 2:07.68 | 85652 | 95244 10 | 21:09.70 | 2:23.11 | 95245 | 105980 11 | 23:33.06 | 2:31.50 | 105981 | 117355 12 | 26:04.56 | 2:40.21 | 117356 | 129376

Range status and errors

Selected range

Filename F:\lossless\Frankie Lymon\2008 - Rock 'N Roll\Frankie Lymon - Rock 'N Roll.wav

Peak level 99.9 % Range quality 99.9 % Test CRC 452D284A Copy CRC 452D284A Copy OK

No errors occurred

AccurateRip summary

Track 1 not present in databaseTrack 2 not present in databaseTrack 3 not present in databaseTrack 4 not present in databaseTrack 5 not present in databaseTrack 6 not present in databaseTrack 7 not present in databaseTrack 8 not present in databaseTrack 9 not present in databaseTrack 10 not present in databaseTrack 11 not present in databaseTrack 12 not present in database

None of the tracks are present in the AccurateRip database

End of status report
Frankie Lymon (1942-1968) and the Teenagers were a New York doo wop group consisting of Joe Negroni, Herman Santiago, Jimmy Merchant, and Sherman Garnes, but centered around the extraordinary talents of their lead singer, 13-year-old Frankie Lymon. Lymon was credited with their first big hit, "Why Do Fools Fall in Love" (in the early '90s, a federal judge ruled after a lengthy trial that Lymon hadn't written "Why Do Fools Fall in Love" -- another member of the Teenagers had). His wise-beyond-his-years vocal and performing abilities not only made the Teenagers a group several notches above the competition but made Lymon the first black teenage pop star.
There's a reason that Frankie Lymon & the Teenagers were one of the few doo wop groups of the '50s with a lead billing; Frankie Lymon was one of the most astounding young voices of the rock & roll era, with a pure and crystal-clear tone that sailed out over the group's sides -- all the vitality of an adolescent voice but none of its weaknesses.


Трекер:  [ 11-Ноя-2012 17:56 ]

  

Скачать .torrent

Размер .torrent файла 17 KB


Размер: 410 MB
Хэш (hash) релиза: 40bc7f55ead838e2c6183be74e496afd224abfd0

Еще никто не оставлял запись к записи скачать торрент Frankie Lymon & The Teenagers - 2CD - 1989-2008, FLAC . Будь первым!

!Обратная связь