Скачать через торрент музыку The Ronettes - Be My Baby: The Very Best Of The Ronettes - 2011, FLAC бесплатно без регистрации torrent

Если у вас наблюдаются проблемы со скриншотами, переходом по ссылками, скачиванием торрентов - проблемы в блокировщике рекламы AdBlock. #хорошегоДня!


Статистика раздачи
Размер:  225 MB   |    Зарегистрирован:  4 года 9 месяцев   |    .torrent скачан:  7 раз   |   
Раздают:  1  
   
Загрузка...
 
Автор Сообщение

Galfimbul

avatar Galfimbul


The Ronettes / Be My Baby: The Very Best Of The Ronettes

Жанр: Rhythm & Blues, Brill Building Pop, Girl Groups
Страна-производитель диска: USA
Год издания диска: 2011
Издатель (лейбл): Phil Spector Records/Legacy
Номер по каталогу: 88697 61286 2
Страна: USA
Аудиокодек: FLAC (*.flac)
Тип рипа: image+.cue
Битрейт аудио: lossless
Продолжительность: 55:34
Источник (релизер): Рип с компакт диска из моей коллекции
Наличие сканов в содержимом раздачи: да

Треклист:
01. Why Don't They Let Us Fall In Love -- Veronica
02. Be My Baby
03. Baby, I Love You
04. (The Best Part Of) Breakin' Up
05. So Young -- Veronica
06. Do I Love You?
07. Walking In The Rain
08. I Wonder
09. When I Saw You
10. You Baby
11. Born To Be Together
12. Is This What I Get For Loving You?
13. Paradise
14. Here I Sit
15. I Wish I Never Saw The Sunshine
16. Everything Under The Sun
17. I Can Hear Music
18. You Came, You Saw, You Conquered
Exact Audio Copy V1.0 beta 1 from 15. November 2010

EAC extraction logfile from 10. September 2011, 19:09

The Ronettes / Be My Baby: The Very Best Of The Ronettes

Used drive : Optiarc DVD RW AD-7241S Adapter: 5 ID: 0

Read mode : SecureUtilize accurate stream : YesDefeat audio cache : YesMake use of C2 pointers : No

Read offset correction : 48Overread into Lead-In and Lead-Out : NoFill up missing offset samples with silence : YesDelete leading and trailing silent blocks : NoNull samples used in CRC calculations : YesUsed interface : Native Win32 interface for Win NT & 2000

Used output format : User Defined EncoderSelected bitrate : 768 kBit/sQuality : HighAdd ID3 tag : NoCommand line compressor : D:\Program Files (x86)\Exact Audio Copy\FLAC\FLAC.EXEAdditional command line options : -6 -V -T "ARTIST=%a" -T "TITLE=%t" -T "ALBUM=%g" -T "DATE=%y" -T "TRACKNUMBER=%n" -T "GENRE=%m" -T "COMMENT=%e" %j--picture="%i"%j %s -o %d

TOC of the extracted CD

Track | Start | Length | Start sector | End sector --------------------------------------------------------- 1 | 0:00.00 | 2:40.31 | 0 | 12030 2 | 2:40.31 | 2:42.07 | 12031 | 24187 3 | 5:22.38 | 2:52.12 | 24188 | 37099 4 | 8:14.50 | 3:06.33 | 37100 | 51082 5 | 11:21.08 | 2:37.07 | 51083 | 62864 6 | 13:58.15 | 2:57.68 | 62865 | 76207 7 | 16:56.08 | 3:18.24 | 76208 | 91081 8 | 20:14.32 | 2:51.46 | 91082 | 103952 9 | 23:06.03 | 2:44.66 | 103953 | 116318 10 | 25:50.69 | 2:57.71 | 116319 | 129664 11 | 28:48.65 | 3:01.28 | 129665 | 143267 12 | 31:50.18 | 3:23.44 | 143268 | 158536 13 | 35:13.62 | 3:40.67 | 158537 | 175103 14 | 38:54.54 | 3:01.14 | 175104 | 188692 15 | 41:55.68 | 3:51.39 | 188693 | 206056 16 | 45:47.32 | 3:44.66 | 206057 | 222922 17 | 49:32.23 | 3:17.18 | 222923 | 237715 18 | 52:49.41 | 2:52.17 | 237716 | 250632

Range status and errors

Selected range

Filename F:\lossless\The Ronettes\2011 - Be My Baby- The Very Best Of The Ronettes\The Ronettes - Be My Baby- The Very Best Of The Ronettes.wav

Peak level 100.0 % Extraction speed 0.2 X Range quality 100.0 % Test CRC A5AB8A69 Copy CRC A5AB8A69 Copy OK

No errors occurred

AccurateRip summary

Track 1 accurately ripped (confidence 3) [A97926ED]Track 2 accurately ripped (confidence 4) [AD1E5950]Track 3 accurately ripped (confidence 4) [1C21CD5E]Track 4 accurately ripped (confidence 4) [894430BC]Track 5 accurately ripped (confidence 4) [B8BE55BC]Track 6 accurately ripped (confidence 4) [ED4B6EC1]Track 7 accurately ripped (confidence 4) [12EA73C5]Track 8 accurately ripped (confidence 4) [7B3AE81E]Track 9 accurately ripped (confidence 4) [4C1D86AF]Track 10 accurately ripped (confidence 4) [3B67595E]Track 11 accurately ripped (confidence 4) [2D47644D]Track 12 accurately ripped (confidence 4) [205F6AB5]Track 13 accurately ripped (confidence 4) [8D8917BC]Track 14 accurately ripped (confidence 4) [AFC3DD5E]Track 15 accurately ripped (confidence 4) [15105238]Track 16 accurately ripped (confidence 4) [0835A316]Track 17 accurately ripped (confidence 4) [A15745EB]Track 18 accurately ripped (confidence 4) [2175BD6B]

All tracks accurately ripped

End of status report
REM GENRE "Early R&B"REM DATE 2011REM DISCID EF0D0D12REM COMMENT "ExactAudioCopy v1.0b1"PERFORMER "The Ronettes"TITLE "Be My Baby: The Very Best Of The Ronettes"FILE "The Ronettes - Be My Baby- The Very Best Of The Ronettes.flac" WAVE TRACK 01 AUDIO TITLE "Why Don't They Let Us Fall In Love" PERFORMER "The Ronettes" INDEX 01 00:00:00 TRACK 02 AUDIO TITLE "Be My Baby" PERFORMER "The Ronettes" INDEX 00 02:39:19 INDEX 01 02:40:31 TRACK 03 AUDIO TITLE "Baby, I Love You" PERFORMER "The Ronettes" INDEX 00 05:21:24 INDEX 01 05:22:38 TRACK 04 AUDIO TITLE "(The Best Part Of) Breakin' Up" PERFORMER "The Ronettes" INDEX 00 08:13:74 INDEX 01 08:14:50 TRACK 05 AUDIO TITLE "So Young" PERFORMER "The Ronettes" INDEX 00 11:19:01 INDEX 01 11:21:08 TRACK 06 AUDIO TITLE "Do I Love You?" PERFORMER "The Ronettes" INDEX 00 13:56:46 INDEX 01 13:58:15 TRACK 07 AUDIO TITLE "Walking In The Rain" PERFORMER "The Ronettes" INDEX 00 16:54:26 INDEX 01 16:56:08 TRACK 08 AUDIO TITLE "I Wonder" PERFORMER "The Ronettes" INDEX 00 20:12:62 INDEX 01 20:14:32 TRACK 09 AUDIO TITLE "When I Saw You" PERFORMER "The Ronettes" INDEX 00 23:04:09 INDEX 01 23:06:03 TRACK 10 AUDIO TITLE "You Baby" PERFORMER "The Ronettes" INDEX 00 25:48:54 INDEX 01 25:50:69 TRACK 11 AUDIO TITLE "Born To Be Together" PERFORMER "The Ronettes" INDEX 00 28:46:19 INDEX 01 28:48:65 TRACK 12 AUDIO TITLE "Is This What I Get For Loving You?" PERFORMER "The Ronettes" INDEX 00 31:48:16 INDEX 01 31:50:18 TRACK 13 AUDIO TITLE "Paradise" PERFORMER "The Ronettes" INDEX 00 35:11:39 INDEX 01 35:13:62 TRACK 14 AUDIO TITLE "Here I Sit" PERFORMER "The Ronettes" INDEX 00 38:54:28 INDEX 01 38:54:54 TRACK 15 AUDIO TITLE "I Wish I Never Saw The Sunshine" PERFORMER "The Ronettes" INDEX 00 41:54:09 INDEX 01 41:55:68 TRACK 16 AUDIO TITLE "Everything Under The Sun" PERFORMER "The Ronettes" INDEX 00 45:45:42 INDEX 01 45:47:32 TRACK 17 AUDIO TITLE "I Can Hear Music" PERFORMER "The Ronettes" INDEX 00 49:30:71 INDEX 01 49:32:23 TRACK 18 AUDIO TITLE "You Came, You Saw, You Conquered" PERFORMER "The Ronettes" INDEX 00 52:48:32 INDEX 01 52:49:41
Recording Date: 1963 - 1969.


Трекер:  [ 11-Ноя-2012 17:55 ]

  

Скачать .torrent

Размер .torrent файла 18 KB


Размер: 225 MB
Хэш (hash) релиза: 3bac19aad2b9c0c3f313ebc86f6097945a6e3b1c

Еще никто не оставлял запись к записи скачать торрент The Ronettes - Be My Baby: The Very Best Of The Ronettes - 2011, FLAC . Будь первым!

!Обратная связь