Скачать через торрент музыку Pat Boone - Pat Boones Greatest Hits - 1993, FLAC бесплатно без регистрации torrent

Если у вас наблюдаются проблемы со скриншотами, переходом по ссылками, скачиванием торрентов - проблемы в блокировщике рекламы AdBlock. #хорошегоДня!


Статистика раздачи
Размер:  230 MB   |    Зарегистрирован:  4 года 9 месяцев   |    .torrent скачан:  10 раз   |   
Раздают:  1  
   
Загрузка...
 
Автор Сообщение

Galfimbul

avatar Galfimbul


Pat Boone / Pat Boone's Greatest Hits

Жанр: Vocal Pop, Rock & Roll, Teen Idols
Страна-производитель диска: USA
Год издания диска: 1993
Издатель (лейбл): MCA Records
Номер по каталогу: MCAD-10885
Страна: USA
Аудиокодек: FLAC (*.flac)
Тип рипа: image+.cue
Битрейт аудио: lossless
Продолжительность: 44:38
Источник (релизер): Компакт диск из моей коллекции
Наличие сканов в содержимом раздачи: да

Треклист:
01. Two Hearts
02. Ain't That A Shame
03. I'll Be Home
04. I Almost Lost My Mind
05. Friendly Persuasion (Thee I Love)
06. Chains Of Love
07. Don't Forbid Me
08. Why Baby Why
09. Love Letters In The Sand
10. Bernardine
11. Remember You're Mine
12. April Love
13. A Wonderful Time Up There
14. It's Too Soon To Know
15. Sugar Moon
16. If Dreams Came True
17. Moody River
18. Speedy Gonzales
Exact Audio Copy V1.0 beta 1 from 15. November 2010

EAC extraction logfile from 25. September 2011, 18:45

Pat Boone / Pat Boone's Greatest Hits

Used drive : Optiarc DVD RW AD-7241S Adapter: 5 ID: 0

Read mode : SecureUtilize accurate stream : YesDefeat audio cache : YesMake use of C2 pointers : No

Read offset correction : 48Overread into Lead-In and Lead-Out : NoFill up missing offset samples with silence : YesDelete leading and trailing silent blocks : NoNull samples used in CRC calculations : YesUsed interface : Native Win32 interface for Win NT & 2000

Used output format : User Defined EncoderSelected bitrate : 768 kBit/sQuality : HighAdd ID3 tag : NoCommand line compressor : D:\Program Files (x86)\Exact Audio Copy\FLAC\FLAC.EXEAdditional command line options : -6 -V -T "ARTIST=%a" -T "TITLE=%t" -T "ALBUM=%g" -T "DATE=%y" -T "TRACKNUMBER=%n" -T "GENRE=%m" -T "COMMENT=%e" %j--picture="%i"%j %s -o %d

TOC of the extracted CD

Track | Start | Length | Start sector | End sector --------------------------------------------------------- 1 | 0:00.00 | 2:36.27 | 0 | 11726 2 | 2:36.27 | 2:24.70 | 11727 | 22596 3 | 5:01.22 | 3:00.30 | 22597 | 36126 4 | 8:01.52 | 2:38.38 | 36127 | 48014 5 | 10:40.15 | 2:57.00 | 48015 | 61289 6 | 13:37.15 | 2:56.20 | 61290 | 74509 7 | 16:33.35 | 2:19.55 | 74510 | 84989 8 | 18:53.15 | 1:58.00 | 84990 | 93839 9 | 20:51.15 | 2:14.42 | 93840 | 103931 10 | 23:05.57 | 2:10.53 | 103932 | 113734 11 | 25:16.35 | 2:15.60 | 113735 | 123919 12 | 27:32.20 | 2:41.15 | 123920 | 136009 13 | 30:13.35 | 2:07.32 | 136010 | 145566 14 | 32:20.67 | 2:35.30 | 145567 | 157221 15 | 34:56.22 | 1:55.15 | 157222 | 165861 16 | 36:51.37 | 2:42.23 | 165862 | 178034 17 | 39:33.60 | 2:37.20 | 178035 | 189829 18 | 42:11.05 | 2:33.07 | 189830 | 201311

Range status and errors

Selected range

Filename F:\lossless\Pat Boone\1993 - Pat Boone's Greatest Hits\Pat Boone - Pat Boone's Greatest Hits.wav

Peak level 98.5 % Extraction speed 0.2 X Range quality 100.0 % Test CRC 4F996628 Copy CRC 4F996628 Copy OK

No errors occurred

AccurateRip summary

Track 1 accurately ripped (confidence 2) [36EF311E]Track 2 accurately ripped (confidence 2) [2ED2A153]Track 3 accurately ripped (confidence 2) [A87A4A45]Track 4 accurately ripped (confidence 2) [7039BF36]Track 5 accurately ripped (confidence 2) [6D2CAA0C]Track 6 accurately ripped (confidence 2) [BB37AB53]Track 7 accurately ripped (confidence 2) [220DAC2F]Track 8 accurately ripped (confidence 2) [B0CE6ACC]Track 9 accurately ripped (confidence 2) [FD92F2ED]Track 10 accurately ripped (confidence 2) [21BF81BB]Track 11 accurately ripped (confidence 2) [805ABAE8]Track 12 accurately ripped (confidence 2) [FFD25AE0]Track 13 accurately ripped (confidence 2) [8DB139B1]Track 14 accurately ripped (confidence 2) [545BC86B]Track 15 accurately ripped (confidence 2) [18FE98CD]Track 16 accurately ripped (confidence 2) [1D16A788]Track 17 accurately ripped (confidence 2) [AFF3DD2A]Track 18 accurately ripped (confidence 2) [DAB388DB]

All tracks accurately ripped

End of status report
REM GENRE "Early Pop/Rock"REM DATE 1993REM DISCID F90A7C12REM COMMENT "ExactAudioCopy v1.0b1"PERFORMER "Pat Boone"TITLE "Pat Boone's Greatest Hits"FILE "Pat Boone - Pat Boone's Greatest Hits.flac" WAVE TRACK 01 AUDIO TITLE "Two Hearts" PERFORMER "Pat Boone" INDEX 01 00:00:00 TRACK 02 AUDIO TITLE "Ain't That A Shame" PERFORMER "Pat Boone" INDEX 00 02:34:60 INDEX 01 02:36:27 TRACK 03 AUDIO TITLE "I'll Be Home" PERFORMER "Pat Boone" INDEX 00 04:59:65 INDEX 01 05:01:22 TRACK 04 AUDIO TITLE "I Almost Lost My Mind" PERFORMER "Pat Boone" INDEX 00 08:00:47 INDEX 01 08:01:52 TRACK 05 AUDIO TITLE "Friendly Persuasion (Thee I Love)" PERFORMER "Pat Boone" INDEX 00 10:38:27 INDEX 01 10:40:15 TRACK 06 AUDIO TITLE "Chains Of Love" PERFORMER "Pat Boone" INDEX 00 13:35:40 INDEX 01 13:37:15 TRACK 07 AUDIO TITLE "Don't Forbid Me" PERFORMER "Pat Boone" INDEX 00 16:31:65 INDEX 01 16:33:35 TRACK 08 AUDIO TITLE "Why Baby Why" PERFORMER "Pat Boone" INDEX 00 18:51:52 INDEX 01 18:53:15 TRACK 09 AUDIO TITLE "Love Letters In The Sand" PERFORMER "Pat Boone" INDEX 01 20:51:15 TRACK 10 AUDIO TITLE "Bernardine" PERFORMER "Pat Boone" INDEX 00 23:03:65 INDEX 01 23:05:57 TRACK 11 AUDIO TITLE "Remember You're Mine" PERFORMER "Pat Boone" INDEX 00 25:14:65 INDEX 01 25:16:35 TRACK 12 AUDIO TITLE "April Love" PERFORMER "Pat Boone" INDEX 00 27:30:47 INDEX 01 27:32:20 TRACK 13 AUDIO TITLE "A Wonderful Time Up There" PERFORMER "Pat Boone" INDEX 00 30:12:02 INDEX 01 30:13:35 TRACK 14 AUDIO TITLE "It's Too Soon To Know" PERFORMER "Pat Boone" INDEX 00 32:19:22 INDEX 01 32:20:67 TRACK 15 AUDIO TITLE "Sugar Moon" PERFORMER "Pat Boone" INDEX 00 34:54:30 INDEX 01 34:56:22 TRACK 16 AUDIO TITLE "If Dreams Came True" PERFORMER "Pat Boone" INDEX 00 36:49:65 INDEX 01 36:51:37 TRACK 17 AUDIO TITLE "Moody River" PERFORMER "Pat Boone" INDEX 00 39:32:20 INDEX 01 39:33:60 TRACK 18 AUDIO TITLE "Speedy Gonzales" PERFORMER "Pat Boone" INDEX 00 42:09:62 INDEX 01 42:11:05
Recording Date: 1955-1962.


Трекер:  [ 11-Ноя-2012 17:55 ]

  

Скачать .torrent

Размер .torrent файла 19 KB


Размер: 230 MB
Хэш (hash) релиза: a5b6b9795e72bd3468055b83770924dba246fc71

Еще никто не оставлял запись к записи скачать торрент Pat Boone - Pat Boones Greatest Hits - 1993, FLAC . Будь первым!

!Обратная связь