Скачать через торрент музыку Gene Vincent - Gene Vincent Rocks & The Bluecaps RollA Gene Vincent Record Date - 1998, FLAC бесплатно без регистрации torrent

Если у вас наблюдаются проблемы со скриншотами, переходом по ссылками, скачиванием торрентов - проблемы в блокировщике рекламы AdBlock. #хорошегоДня!


Статистика раздачи
Размер:  326 MB   |    Зарегистрирован:  4 года 9 месяцев   |    .torrent скачан:  9 раз   |   
Раздают:  1  
   
Загрузка...
 
Автор Сообщение

Galfimbul

avatar Galfimbul


Gene Vincent / Gene Vincent Rocks & The Bluecaps Roll/A Gene Vincent Record Date

Жанр: Rock & Roll, Rockabilly
Страна-производитель диска: USA
Год издания диска: 1998
Издатель (лейбл): Collectables Records
Номер по каталогу: COL2714
Страна: USA
Аудио кодек: FLAC (*.flac)
Тип рипа: image+.cue
Битрейт аудио: lossless
Продолжительность: 1:01:51
Источник (релизер): Рип с компакт диска из моей коллекции
Наличие сканов в содержимом раздачи: да

Треклист:
01. Brand New Beat
02. By The Light Of The Silvery Moon
03. You'll Never Walk Alone
04. Frankie And Johnny
05. In My Dreams
06. Flea Brain
07. Rollin' Danny
08. You Belong To Me
09. Your Cheatin' Heart
10. Time Will Bring You Everything
11. Should I Ever Love Again
12. It's No Lie
13. Five Feet Of Lovin'
14. Wayward Wind
15. Somebody Help Me
16. Keep It A Secret
17. Hey, Good Lookin'
18. Git It
19. Teenage Partner
20. Peace Of Mind
21. Look What You Gone And Done To Me
22. Summertime
23. I Can't Help It (If I'm Still In Love With You)
24. I Love You
25. Be-Bop-A-Lula [Bonus Track]
26. Race With the Devil [Bonus Track]
Exact Audio Copy V0.99 prebeta 5 from 4. May 2009

EAC extraction logfile from 28. December 2010, 0:40

Gene Vincent / Gene Vincent Rocks & The Bluecaps Roll/A Gene Vincent Record Date

Used drive : Optiarc DVD RW AD-7241S Adapter: 5 ID: 0

Read mode : SecureUtilize accurate stream : YesDefeat audio cache : YesMake use of C2 pointers : No

Read offset correction : 48Overread into Lead-In and Lead-Out : NoFill up missing offset samples with silence : YesDelete leading and trailing silent blocks : NoNull samples used in CRC calculations : YesUsed interface : Native Win32 interface for Win NT & 2000

Used output format : User Defined EncoderSelected bitrate : 768 kBit/sQuality : HighAdd ID3 tag : NoCommand line compressor : D:\Program Files (x86)\Exact Audio Copy\FLAC\FLAC.EXEAdditional command line options : -6 -V -T "ARTIST=%a" -T "TITLE=%t" -T "ALBUM=%g" -T "DATE=%y" -T "TRACKNUMBER=%n" -T "GENRE=%m" -T "COMMENT=%e" %s -o %d

TOC of the extracted CD

Track | Start | Length | Start sector | End sector --------------------------------------------------------- 1 | 0:00.00 | 2:31.30 | 0 | 11354 2 | 2:31.30 | 2:03.27 | 11355 | 20606 3 | 4:34.57 | 2:37.28 | 20607 | 32409 4 | 7:12.10 | 2:40.50 | 32410 | 44459 5 | 9:52.60 | 2:40.04 | 44460 | 56463 6 | 12:32.64 | 2:05.46 | 56464 | 65884 7 | 14:38.35 | 2:09.10 | 65885 | 75569 8 | 16:47.45 | 2:29.12 | 75570 | 86756 9 | 19:16.57 | 2:12.20 | 86757 | 96676 10 | 21:29.02 | 2:15.65 | 96677 | 106866 11 | 23:44.67 | 2:47.73 | 106867 | 119464 12 | 26:32.65 | 2:02.60 | 119465 | 128674 13 | 28:35.50 | 2:14.27 | 128675 | 138751 14 | 30:50.02 | 2:45.45 | 138752 | 151171 15 | 33:35.47 | 2:12.15 | 151172 | 161086 16 | 35:47.62 | 2:06.00 | 161087 | 170536 17 | 37:53.62 | 2:32.10 | 170537 | 181946 18 | 40:25.72 | 2:27.53 | 181947 | 193024 19 | 42:53.50 | 2:18.65 | 193025 | 203439 20 | 45:12.40 | 2:26.12 | 203440 | 214401 21 | 47:38.52 | 2:06.03 | 214402 | 223854 22 | 49:44.55 | 2:55.57 | 223855 | 237036 23 | 52:40.37 | 2:51.53 | 237037 | 249914 24 | 55:32.15 | 1:50.62 | 249915 | 258226 25 | 57:23.02 | 2:36.68 | 258227 | 269994 26 | 59:59.70 | 2:02.12 | 269995 | 279156

Range status and errors

Selected range

Filename F:\lossless\Gene Vincent\1998 - Gene Vincent Rocks & The Bluecaps Roll-A Gene Vincent Record Date\Gene Vincent - Gene Vincent Rocks & The Bluecaps Roll-A Gene Vincent Record Date.wav

Peak level 99.9 % Range quality 99.9 % Test CRC 53B0DA36 Copy CRC 53B0DA36 Copy OK

No errors occurred

AccurateRip summary

Track 1 cannot be verified as accurate (confidence 2) [282A6CCC], AccurateRip returned [1907F9A8]Track 2 cannot be verified as accurate (confidence 2) [96073E69], AccurateRip returned [90BDBD01]Track 3 cannot be verified as accurate (confidence 2) [FF7A7BF4], AccurateRip returned [B4DC925C]Track 4 cannot be verified as accurate (confidence 2) [CA50E5BC], AccurateRip returned [83AA38FC]Track 5 cannot be verified as accurate (confidence 2) [180ED2A8], AccurateRip returned [87C9E930]Track 6 cannot be verified as accurate (confidence 2) [DC2DC14A], AccurateRip returned [B51EA65A]Track 7 cannot be verified as accurate (confidence 2) [97CECA14], AccurateRip returned [A9FCB2D0]Track 8 cannot be verified as accurate (confidence 2) [538E5C6F], AccurateRip returned [18EDC6DB]Track 9 cannot be verified as accurate (confidence 2) [4056DAF0], AccurateRip returned [6317CE24]Track 10 cannot be verified as accurate (confidence 2) [28174F73], AccurateRip returned [E74458C7]Track 11 cannot be verified as accurate (confidence 2) [BD259F88], AccurateRip returned [3D6E40BC]Track 12 cannot be verified as accurate (confidence 2) [BAC3A62B], AccurateRip returned [608EFB0B]Track 13 cannot be verified as accurate (confidence 2) [C4D4BD94], AccurateRip returned [1CA4DCC0]Track 14 cannot be verified as accurate (confidence 2) [F434C73E], AccurateRip returned [E21BE826]Track 15 cannot be verified as accurate (confidence 2) [CF393CDD], AccurateRip returned [A09AA1FD]Track 16 cannot be verified as accurate (confidence 2) [0D99A8AA], AccurateRip returned [98028632]Track 17 cannot be verified as accurate (confidence 2) [EE287DEA], AccurateRip returned [55F14B52]Track 18 cannot be verified as accurate (confidence 2) [F78B5F4F], AccurateRip returned [DE7C723F]Track 19 cannot be verified as accurate (confidence 2) [F9079D53], AccurateRip returned [F6DF56B7]Track 20 cannot be verified as accurate (confidence 2) [ED60E472], AccurateRip returned [CAC9F196]Track 21 cannot be verified as accurate (confidence 2) [C07F16C4], AccurateRip returned [4E0258EC]Track 22 cannot be verified as accurate (confidence 2) [2CB649FD], AccurateRip returned [0CC33529]Track 23 cannot be verified as accurate (confidence 2) [87494645], AccurateRip returned [DF80995D]Track 24 cannot be verified as accurate (confidence 2) [B6F73B60], AccurateRip returned [7AC9680C]Track 25 cannot be verified as accurate (confidence 2) [1428D60D], AccurateRip returned [EFE01691]Track 26 cannot be verified as accurate (confidence 2) [68D7D729], AccurateRip returned [F64B0F93]

No tracks could be verified as accurateYou may have a different pressing from the one(s) in the database

End of status report


Трекер:  [ 11-Ноя-2012 17:55 ]

  

Скачать .torrent

Размер .torrent файла 13 KB


Размер: 326 MB
Хэш (hash) релиза: 971f6176660a069e55bf71d181f5851378610b4e

Еще никто не оставлял запись к записи скачать торрент Gene Vincent - Gene Vincent Rocks & The Bluecaps RollA Gene Vincent Record Date - 1998, FLAC . Будь первым!

!Обратная связь