Скачать через торрент музыку Carl Mann - Rockin Mann 58-62 - 1996, бесплатно без регистрации torrent

Если у вас наблюдаются проблемы со скриншотами, переходом по ссылками, скачиванием торрентов - проблемы в блокировщике рекламы AdBlock. #хорошегоДня!


Статистика раздачи
Размер:  204 MB   |    Зарегистрирован:  5 лет   |    .torrent скачан:  6 раз   |   
Раздают:  1  
   
Загрузка...
 
Автор Сообщение

Galfimbul

avatar Galfimbul


Carl Mann / Rockin' Mann

Жанр: Rockabilly / Rock'n'Roll
Страна-производитель диска: EU
Год издания: 1996
Издатель (лейбл): Charly
Номер по каталогу: CPCD 8234
Страна: USA
Аудиокодек: FLAC (*.flac)
Тип рипа: image+.cue
Битрейт аудио: lossless
Продолжительность: 63:07
Источник (релизер): AUDELAS KINGDOM
Наличие сканов в содержимом раздачи: да
01. Mona Lisa
02. Foolish One
03. Rockin' Love
04. Pretend
05. Some Enchanted Evening
06. I Can't Forget You
07. Look At That Moon
08. Take These Chains From My Heart
09. Too Young
10. South Of The Border
11. Kansas City
12. The Wayward Wind
13. Ain't Got No Home
14. Blueberry Hill
15. I'll Always Love You Darling
16. Baby I Don't Care
17. I Don't Care
18. Ubangi Stomp
19. I'm Comin' Home
20. Born To Be Bad
21. Ain't You Got No Lovin' For Me
22. Don't Let The Stars Get In Your Eyes
23. When I Grow Too Old To Dream
24. Mountain Dew
25. If I Could Change You
26. Even Tho'
27. Because Of You
28. Long Black Veil

Exact Audio Copy V1.0 beta 2 from 29. April 2011

EAC extraction logfile from 3. November 2012, 11:46

Carl Mann / Rockin' Mann

Used drive : _NEC DVD_RW ND-3550A Adapter: 1 ID: 0

Read mode : SecureUtilize accurate stream : YesDefeat audio cache : YesMake use of C2 pointers : No

Read offset correction : 48Overread into Lead-In and Lead-Out : NoFill up missing offset samples with silence : YesDelete leading and trailing silent blocks : NoNull samples used in CRC calculations : YesUsed interface : Native Win32 interface for Win NT & 2000

Used output format : User Defined EncoderSelected bitrate : 768 kBit/sQuality : HighAdd ID3 tag : NoCommand line compressor : C:\Program Files\Exact Audio Copy\FLAC\FLAC.EXEAdditional command line options : -6 -V -T "ARTIST=%artist%" -T "TITLE=%title%" -T "ALBUM=%albumtitle%" -T "DATE=%year%" -T "TRACKNUMBER=%tracknr%" -T "GENRE=%genre%" -T "COMMENT=%comment%" -T "BAND=%albuminterpret%" -T "COMPOSER=%composer%" %haslyrics%--ta

TOC of the extracted CD

Track | Start | Length | Start sector | End sector --------------------------------------------------------- 1 | 0:00.00 | 2:25.32 | 0 | 10906 2 | 2:25.32 | 1:50.10 | 10907 | 19166 3 | 4:15.42 | 2:42.48 | 19167 | 31364 4 | 6:58.15 | 2:39.32 | 31365 | 43321 5 | 9:37.47 | 2:08.13 | 43322 | 52934 6 | 11:45.60 | 2:35.35 | 52935 | 64594 7 | 14:21.20 | 1:37.32 | 64595 | 71901 8 | 15:58.52 | 1:47.68 | 71902 | 79994 9 | 17:46.45 | 1:55.30 | 79995 | 88649 10 | 19:42.00 | 1:59.30 | 88650 | 97604 11 | 21:41.30 | 2:46.57 | 97605 | 110111 12 | 24:28.12 | 2:17.60 | 110112 | 120446 13 | 26:45.72 | 2:26.40 | 120447 | 131436 14 | 29:12.37 | 1:38.73 | 131437 | 138859 15 | 30:51.35 | 2:34.17 | 138860 | 150426 16 | 33:25.52 | 2:10.20 | 150427 | 160196 17 | 35:35.72 | 2:03.13 | 160197 | 169434 18 | 37:39.10 | 2:15.10 | 169435 | 179569 19 | 39:54.20 | 2:34.60 | 179570 | 191179 20 | 42:29.05 | 2:39.72 | 191180 | 203176 21 | 45:09.02 | 2:13.53 | 203177 | 213204 22 | 47:22.55 | 2:33.47 | 213205 | 224726 23 | 49:56.27 | 2:47.30 | 224727 | 237281 24 | 52:43.57 | 2:48.00 | 237282 | 249881 25 | 55:31.57 | 3:09.08 | 249882 | 264064 26 | 58:40.65 | 2:28.10 | 264065 | 275174 27 | 61:09.00 | 2:11.17 | 275175 | 285016 28 | 63:20.17 | 3:10.28 | 285017 | 299294

Range status and errors

Selected range

Filename D:\Muzika\Carl Mann - Rockin' Mann (1996)\Carl Mann - Rockin' Mann.wav

Peak level 92.7 % Extraction speed 4.3 X Range quality 100.0 % Test CRC DE6434C3 Copy CRC DE6434C3 Copy OK

No errors occurred

AccurateRip summary

Track 1 cannot be verified as accurate (confidence 1) [7297D71C], AccurateRip returned [274AC086] (AR v2)Track 2 cannot be verified as accurate (confidence 1) [9CB49DF4], AccurateRip returned [AD3D1DF6] (AR v2)Track 3 cannot be verified as accurate (confidence 1) [C9321CAF], AccurateRip returned [7AAC73B1] (AR v2)Track 4 cannot be verified as accurate (confidence 1) [E4FE4573], AccurateRip returned [31BC85B6] (AR v2)Track 5 cannot be verified as accurate (confidence 1) [E52FCB58], AccurateRip returned [48AF1513] (AR v2)Track 6 cannot be verified as accurate (confidence 1) [EF2BACDB], AccurateRip returned [3F41F505] (AR v2)Track 7 cannot be verified as accurate (confidence 1) [BB8DFEFF], AccurateRip returned [9A40C839] (AR v2)Track 8 cannot be verified as accurate (confidence 1) [5DE91828], AccurateRip returned [A0AF9EAA] (AR v2)Track 9 cannot be verified as accurate (confidence 1) [9F20D177], AccurateRip returned [581B68F9] (AR v2)Track 10 cannot be verified as accurate (confidence 1) [40EB1F2A], AccurateRip returned [5B460CE9] (AR v2)Track 11 cannot be verified as accurate (confidence 1) [2C8119EE], AccurateRip returned [33E67518] (AR v2)Track 12 cannot be verified as accurate (confidence 1) [AD5152CE], AccurateRip returned [94CF12C9] (AR v2)Track 13 cannot be verified as accurate (confidence 1) [B9C27F67], AccurateRip returned [C0CD860B] (AR v2)Track 14 cannot be verified as accurate (confidence 1) [E81A9CAC], AccurateRip returned [A0919A42] (AR v2)Track 15 cannot be verified as accurate (confidence 1) [8230A1F2], AccurateRip returned [71A2E902] (AR v2)Track 16 cannot be verified as accurate (confidence 1) [1EC45A5D], AccurateRip returned [98D8C260] (AR v2)Track 17 cannot be verified as accurate (confidence 1) [2CFBBE98], AccurateRip returned [D7839849] (AR v2)Track 18 cannot be verified as accurate (confidence 1) [7A4200B8], AccurateRip returned [40B2E8A9] (AR v2)Track 19 cannot be verified as accurate (confidence 1) [138D6F95], AccurateRip returned [2BB9FDEF] (AR v2)Track 20 cannot be verified as accurate (confidence 1) [3A767D54], AccurateRip returned [0758D03B] (AR v2)Track 21 cannot be verified as accurate (confidence 1) [EA68EFCF], AccurateRip returned [9FB0DB28] (AR v2)Track 22 cannot be verified as accurate (confidence 1) [E2D9431D], AccurateRip returned [52A93792] (AR v2)Track 23 cannot be verified as accurate (confidence 1) [4B64005D], AccurateRip returned [AE70C2BF] (AR v2)Track 24 cannot be verified as accurate (confidence 1) [5242CF90], AccurateRip returned [4FF65823] (AR v2)Track 25 cannot be verified as accurate (confidence 1) [3FA1A844], AccurateRip returned [808FF21E] (AR v2)Track 26 cannot be verified as accurate (confidence 1) [2B3F776B], AccurateRip returned [C17996FD] (AR v2)Track 27 cannot be verified as accurate (confidence 1) [A0559F2A], AccurateRip returned [648428EC] (AR v2)Track 28 cannot be verified as accurate (confidence 1) [C6FD3DD3], AccurateRip returned [1AA50033] (AR v2)

No tracks could be verified as accurateYou may have a different pressing from the one(s) in the database

End of status report

==== Log checksum 9EBF6520E8BD41DCEA2B1D3E2FF518FE3ECCF852AA98FA8F537949BFEFF6A353 ====


Трекер:  [ 11-Ноя-2012 17:55 ]

  

Скачать .torrent

Размер .torrent файла 16 KB


Размер: 204 MB
Хэш (hash) релиза: 62b08f6324599c0c96826ba266e2b6a09320b5fb

Еще никто не оставлял запись к записи скачать торрент Carl Mann - Rockin Mann 58-62 - 1996, . Будь первым!

!Обратная связь