Скачать через торрент музыку Lou Monte - Lou Monte Sings For You : All The Hits and More...57-64 - 1996, бесплатно без регистрации torrent

Если у вас наблюдаются проблемы со скриншотами, переходом по ссылками, скачиванием торрентов - проблемы в блокировщике рекламы AdBlock. #хорошегоДня!


Статистика раздачи
Размер:  387 MB   |    Зарегистрирован:  4 года 9 месяцев   |    .torrent скачан:  18 раз   |   
Раздают:  1  
   
Загрузка...
 
Автор Сообщение

Galfimbul

avatar Galfimbul


Lou Monte / Lou Monte Sings For You : All The Hits and More...

Жанр: Rock'n'Roll / Traditional Pop
Страна-производитель диска: Belgique
Год издания: 1996
Издатель (лейбл): Marginal Records
Номер по каталогу: MAR 029
Страна: USA
Аудиокодек: FLAC (*.flac)
Тип рипа: image+.cue
Битрейт аудио: lossless
Продолжительность: 72:00
Источник (релизер): AUDELAS KINGDOM
Наличие сканов в содержимом раздачи: да
01. Lazy Mary
02. The Sheik Of Araby
03. Bony Lena
04. Hello Dolly
05. Sixteen Tons
06. Twist Italiano
07. Pepino, The Italian Mouse
08. Volare
09. I’m Walkin!
10. Luna-Luna-Luna
11. Pepino’s Friend Pasqual
12. Pepino’s Cha Cha
13. Tell Me That You Love Me
14. Tijuana Italiano
15. Skinny Lena
16. I Know How You Feel
17. Solo Perte
18. Pizza Boy Usa
19. Marianna
20. The Huckle-Buck
21. Stella D’amore
22. Rag Mop
23. Bim Bam Bu
24. Oh –Tessie
25. Pistol Packin’ Mama
26. Dominick The Donkey
27. Nina, The Queen Of The Teeners
28. Pony Tail

Exact Audio Copy V1.0 beta 2 from 29. April 2011

EAC extraction logfile from 3. November 2012, 13:06

Lou Monte / Lou Monte Sings For You All The Hits and More...

Used drive : _NEC DVD_RW ND-3550A Adapter: 1 ID: 0

Read mode : SecureUtilize accurate stream : YesDefeat audio cache : YesMake use of C2 pointers : No

Read offset correction : 48Overread into Lead-In and Lead-Out : NoFill up missing offset samples with silence : YesDelete leading and trailing silent blocks : NoNull samples used in CRC calculations : YesUsed interface : Native Win32 interface for Win NT & 2000

Used output format : User Defined EncoderSelected bitrate : 768 kBit/sQuality : HighAdd ID3 tag : NoCommand line compressor : C:\Program Files\Exact Audio Copy\FLAC\FLAC.EXEAdditional command line options : -6 -V -T "ARTIST=%artist%" -T "TITLE=%title%" -T "ALBUM=%albumtitle%" -T "DATE=%year%" -T "TRACKNUMBER=%tracknr%" -T "GENRE=%genre%" -T "COMMENT=%comment%" -T "BAND=%albuminterpret%" -T "COMPOSER=%composer%" %haslyrics%--ta

TOC of the extracted CD

Track | Start | Length | Start sector | End sector --------------------------------------------------------- 1 | 0:00.00 | 2:40.37 | 0 | 12036 2 | 2:40.37 | 2:14.60 | 12037 | 22146 3 | 4:55.22 | 2:37.33 | 22147 | 33954 4 | 7:32.55 | 2:20.45 | 33955 | 44499 5 | 9:53.25 | 2:14.57 | 44500 | 54606 6 | 12:08.07 | 2:36.13 | 54607 | 66319 7 | 14:44.20 | 2:40.57 | 66320 | 78376 8 | 17:25.02 | 2:41.73 | 78377 | 90524 9 | 20:07.00 | 2:32.07 | 90525 | 101931 10 | 22:39.07 | 2:14.35 | 101932 | 112016 11 | 24:53.42 | 3:05.28 | 112017 | 125919 12 | 27:58.70 | 2:24.57 | 125920 | 136776 13 | 30:23.52 | 2:20.43 | 136777 | 147319 14 | 32:44.20 | 2:40.62 | 147320 | 159381 15 | 35:25.07 | 3:15.18 | 159382 | 174024 16 | 38:40.25 | 2:12.40 | 174025 | 183964 17 | 40:52.65 | 2:47.20 | 183965 | 196509 18 | 43:40.10 | 2:20.55 | 196510 | 207064 19 | 46:00.65 | 2:29.57 | 207065 | 218296 20 | 48:30.47 | 1:59.43 | 218297 | 227264 21 | 50:30.15 | 2:17.17 | 227265 | 237556 22 | 52:47.32 | 2:20.55 | 237557 | 248111 23 | 55:08.12 | 2:19.60 | 248112 | 258596 24 | 57:27.72 | 1:50.73 | 258597 | 266919 25 | 59:18.70 | 2:00.27 | 266920 | 275946 26 | 61:19.22 | 2:29.10 | 275947 | 287131 27 | 63:48.32 | 1:51.38 | 287132 | 295494 28 | 65:39.70 | 2:18.30 | 295495 | 305874

Range status and errors

Selected range

Filename D:\Muzika\Lou Monte - Lou Monte Sings For You All The Hits and More... (1996)\Lou Monte - Lou Monte Sings For You All The Hits and More....wav

Peak level 99.9 % Extraction speed 5.4 X Range quality 100.0 % Test CRC CF8632FD Copy CRC CF8632FD Copy OK

No errors occurred

AccurateRip summary

Track 1 accurately ripped (confidence 1) [8063A7B9] (AR v1)Track 2 accurately ripped (confidence 1) [537FA6A4] (AR v1)Track 3 accurately ripped (confidence 1) [60254345] (AR v1)Track 4 accurately ripped (confidence 1) [58F8F6CD] (AR v1)Track 5 accurately ripped (confidence 1) [F9446D70] (AR v1)Track 6 accurately ripped (confidence 1) [47EB1E20] (AR v1)Track 7 accurately ripped (confidence 1) [5F39AFFB] (AR v1)Track 8 accurately ripped (confidence 1) [D4796DCE] (AR v1)Track 9 accurately ripped (confidence 1) [8D0AA90B] (AR v1)Track 10 accurately ripped (confidence 1) [E845007B] (AR v1)Track 11 accurately ripped (confidence 1) [77983E8E] (AR v1)Track 12 accurately ripped (confidence 1) [3592F9C7] (AR v1)Track 13 accurately ripped (confidence 1) [315BA771] (AR v1)Track 14 accurately ripped (confidence 1) [F1894E27] (AR v1)Track 15 accurately ripped (confidence 1) [E34EBDD4] (AR v1)Track 16 accurately ripped (confidence 1) [806AEBCC] (AR v1)Track 17 accurately ripped (confidence 1) [C1077CAB] (AR v1)Track 18 accurately ripped (confidence 1) [6215B7EF] (AR v1)Track 19 accurately ripped (confidence 1) [1D7A650A] (AR v1)Track 20 accurately ripped (confidence 1) [C60E1749] (AR v1)Track 21 accurately ripped (confidence 1) [ABF65154] (AR v1)Track 22 accurately ripped (confidence 1) [28D7FE5F] (AR v1)Track 23 accurately ripped (confidence 1) [A98B32C7] (AR v1)Track 24 accurately ripped (confidence 1) [F7C28B4B] (AR v1)Track 25 accurately ripped (confidence 1) [3483E582] (AR v1)Track 26 accurately ripped (confidence 1) [7D29E5E9] (AR v1)Track 27 accurately ripped (confidence 1) [2B453F0A] (AR v1)Track 28 accurately ripped (confidence 1) [F67642B1] (AR v1)

All tracks accurately ripped

End of status report

==== Log checksum 3E6284A70EE700C3FD4EC24534CDBC2AB4418858FCEFE614DB2F7B9BAE23E5F8 ====


Трекер:  [ 11-Ноя-2012 17:55 ]

  

Скачать .torrent

Размер .torrent файла 16 KB


Размер: 387 MB
Хэш (hash) релиза: bcdf809bdcae1171fdd99b85c177d85df1853970

Еще никто не оставлял запись к записи скачать торрент Lou Monte - Lou Monte Sings For You : All The Hits and More...57-64 - 1996, . Будь первым!

!Обратная связь