Скачать через торрент музыку Elvis Presley - Elvis Presley бесплатно без регистрации torrent

Если у вас наблюдаются проблемы со скриншотами, переходом по ссылками, скачиванием торрентов - проблемы в блокировщике рекламы AdBlock. #хорошегоДня!


Статистика раздачи
Размер:  329 MB   |    Зарегистрирован:  5 лет   |    .torrent скачан:  23 раза   |   
Раздают:  1  
   
Загрузка...
 
Автор Сообщение

Galfimbul

avatar Galfimbul


Elvis Presley - Elvis Presley

Жанр: Rock & Roll
Страна-производитель диска: USA
Год издания: 2011
Издатель (лейбл): Legacy
Номер по каталогу: 88697 90795 2
Страна: USA
Аудиокодек: FLAC (*.flac)
Тип рипа: tracks+.cue
Битрейт аудио: lossless
Продолжительность: 01:28:11
Источник (релизер): what.cd [udin]
Наличие сканов: отсутствуют
Disc1:
1 The Blue Suede Shoes 2:02
2 I'm Counting On You 2:25
3 I Got A Woman 2:25
4 One-Sided Love Affair 2:11
5 I Love You Because 2:41
6 Just Because 2:34
7 Tutti Frutti 1:59
8 Trying To Get To You 2:33
9 I'm Gonna Sit Down And Cry (Over You) 2:05
10 I'll Never Let You Go (Little Darlin') 2:25
11 Blue Moon 2:44
12 Money Honey 2:37
The Hit Singles
13 Heartbreak Hotel 2:09
14 I Was The One 2:34
15 My Baby Left Me 2:14
16 Lawdy, Miss Clawdy 2:09
17 Shake, Rattle And Roll 2:26
Disc2:
1 Rip It Up 1:55
2 Love Me 2:45
3 When My Blue Moon Turns To Gold Again 2:22
4 Long Tall Sally 1:54
5 First In Line 3:23
6 Paralyzed 2:25
7 So Glad You're Mine 2:22
8 Old Shep 4:10
9 Ready Teddy 1:56
10 Anyplace Is Paradise 2:26
11 How's The World Treating You 2:25
12 How Do You Think I Feel 2:12
The Hit Singles
13 I Want You, I Need You, I Love You 2:41
14 Hound Dog 2:17
15 Don't Be Cruel 2:05
16 Any Way You Want Me (That's How I Will Be) 2:15
17 Too Much 2:34
18 Playing For Keeps 2:53
19 Love Me Tender 2:42
X Lossless Decoder version 20110924 (136.3)

XLD extraction logfile from 2011-09-28 01:18:24 +0000

Elvis Presley / Elvis Presley (Legacy Edition) [Disc 1]

Used drive : TSSTcorp CD/DVDW SH-S182M (revision SB02)

Ripper mode : XLD Secure RipperDisable audio cache : OK for the drive with a cache less than 1375KiBMake use of C2 pointers : NORead offset correction : 6Max retry count : 100Gap status : Analyzed, Appended (except HTOA)

TOC of the extracted CD Track | Start | Length | Start sector | End sector --------------------------------------------------------- 1 | 00:00:00 | 02:02:27 | 0 | 9176 2 | 02:02:27 | 02:25:11 | 9177 | 20062 3 | 04:27:38 | 02:25:63 | 20063 | 31000 4 | 06:53:26 | 02:11:28 | 31001 | 40853 5 | 09:04:54 | 02:41:08 | 40854 | 52936 6 | 11:45:62 | 02:34:51 | 52937 | 64537 7 | 14:20:38 | 01:59:13 | 64538 | 73475 8 | 16:19:51 | 02:33:29 | 73476 | 84979 9 | 18:53:05 | 02:05:00 | 84980 | 94354 10 | 20:58:05 | 02:25:48 | 94355 | 105277 11 | 23:23:53 | 02:44:01 | 105278 | 117578 12 | 26:07:54 | 02:37:15 | 117579 | 129368 13 | 28:44:69 | 02:09:47 | 129369 | 139090 14 | 30:54:41 | 02:34:06 | 139091 | 150646 15 | 33:28:47 | 02:14:60 | 150647 | 160756 16 | 35:43:32 | 02:09:36 | 160757 | 170467 17 | 37:52:68 | 02:26:40 | 170468 | 181457

AccurateRip Summary Disc not found in AccurateRip DB.

All Tracks Album gain : -5.22 dB Peak : 1.000000 Statistics Read error : 0 Jitter error (maybe fixed) : 0 Retry sector count : 0 Damaged sector count : 0

Track 01 Filename : /Volumes/Elements/Elvis Presley - Elvis Presley (Legacy Edition) [Disc 1] (2011) [WAV]/01 Blue Suede Shoes.wav /Volumes/Elements/Elvis Presley - Elvis Presley (Legacy Edition) [Disc 1] (2011) [LAME V2]/01 Blue Suede Shoes.mp3 /Volumes/Elements/Elvis Presley - Elvis Presley (Legacy Edition) [Disc 1] (2011) [FLAC (level 8)]/01 Blue Suede Shoes.flac Pre-gap length : 00:02:00

Track gain : -6.34 dB Peak : 0.931854 CRC32 hash (test run) : F76618B6 CRC32 hash : F76618B6 CRC32 hash (skip zero) : 85CF4328 AccurateRip signature : F2CA703A ->Track not present in AccurateRip database. Statistics Read error : 0 Jitter error (maybe fixed) : 0 Retry sector count : 0 Damaged sector count : 0

Track 02 Filename : /Volumes/Elements/Elvis Presley - Elvis Presley (Legacy Edition) [Disc 1] (2011) [WAV]/02 I'm Counting On You.wav /Volumes/Elements/Elvis Presley - Elvis Presley (Legacy Edition) [Disc 1] (2011) [LAME V2]/02 I'm Counting On You.mp3 /Volumes/Elements/Elvis Presley - Elvis Presley (Legacy Edition) [Disc 1] (2011) [FLAC (level 8)]/02 I'm Counting On You.flac Pre-gap length : 00:01:57

Track gain : -3.57 dB Peak : 0.999969 CRC32 hash (test run) : D8166325 CRC32 hash : D8166325 CRC32 hash (skip zero) : 5C348E80 AccurateRip signature : 5576E12C ->Track not present in AccurateRip database. Statistics Read error : 0 Jitter error (maybe fixed) : 0 Retry sector count : 0 Damaged sector count : 0

Track 03 Filename : /Volumes/Elements/Elvis Presley - Elvis Presley (Legacy Edition) [Disc 1] (2011) [WAV]/03 I Got A Woman.wav /Volumes/Elements/Elvis Presley - Elvis Presley (Legacy Edition) [Disc 1] (2011) [LAME V2]/03 I Got A Woman.mp3 /Volumes/Elements/Elvis Presley - Elvis Presley (Legacy Edition) [Disc 1] (2011) [FLAC (level 8)]/03 I Got A Woman.flac Pre-gap length : 00:01:57

Track gain : -4.35 dB Peak : 0.933411 CRC32 hash (test run) : B7E83DDD CRC32 hash : B7E83DDD CRC32 hash (skip zero) : BB9162B7 AccurateRip signature : 11517E3A ->Track not present in AccurateRip database. Statistics Read error : 0 Jitter error (maybe fixed) : 0 Retry sector count : 0 Damaged sector count : 0

Track 04 Filename : /Volumes/Elements/Elvis Presley - Elvis Presley (Legacy Edition) [Disc 1] (2011) [WAV]/04 One-Sided Love Affair.wav /Volumes/Elements/Elvis Presley - Elvis Presley (Legacy Edition) [Disc 1] (2011) [LAME V2]/04 One-Sided Love Affair.mp3 /Volumes/Elements/Elvis Presley - Elvis Presley (Legacy Edition) [Disc 1] (2011) [FLAC (level 8)]/04 One-Sided Love Affair.flac Pre-gap length : 00:01:57

Track gain : -5.68 dB Peak : 0.781769 CRC32 hash (test run) : 48079684 CRC32 hash : 48079684 CRC32 hash (skip zero) : DE92738B AccurateRip signature : 50C62521 ->Track not present in AccurateRip database. Statistics Read error : 0 Jitter error (maybe fixed) : 0 Retry sector count : 0 Damaged sector count : 0

Track 05 Filename : /Volumes/Elements/Elvis Presley - Elvis Presley (Legacy Edition) [Disc 1] (2011) [WAV]/05 I Love You Because.wav /Volumes/Elements/Elvis Presley - Elvis Presley (Legacy Edition) [Disc 1] (2011) [LAME V2]/05 I Love You Because.mp3 /Volumes/Elements/Elvis Presley - Elvis Presley (Legacy Edition) [Disc 1] (2011) [FLAC (level 8)]/05 I Love You Because.flac Pre-gap length : 00:01:57

Track gain : -4.69 dB Peak : 0.939453 CRC32 hash (test run) : 8082FEE5 CRC32 hash : 8082FEE5 CRC32 hash (skip zero) : 6FA32F4D AccurateRip signature : 7373DAD2 ->Track not present in AccurateRip database. Statistics Read error : 0 Jitter error (maybe fixed) : 0 Retry sector count : 0 Damaged sector count : 0

Track 06 Filename : /Volumes/Elements/Elvis Presley - Elvis Presley (Legacy Edition) [Disc 1] (2011) [WAV]/06 Just Because.wav /Volumes/Elements/Elvis Presley - Elvis Presley (Legacy Edition) [Disc 1] (2011) [LAME V2]/06 Just Because.mp3 /Volumes/Elements/Elvis Presley - Elvis Presley (Legacy Edition) [Disc 1] (2011) [FLAC (level 8)]/06 Just Because.flac Pre-gap length : 00:01:56

Track gain : -5.02 dB Peak : 0.854248 CRC32 hash (test run) : E7B6DF25 CRC32 hash : E7B6DF25 CRC32 hash (skip zero) : 77350B34 AccurateRip signature : 7A11E97F ->Track not present in AccurateRip database. Statistics Read error : 0 Jitter error (maybe fixed) : 0 Retry sector count : 0 Damaged sector count : 0

Track 07 Filename : /Volumes/Elements/Elvis Presley - Elvis Presley (Legacy Edition) [Disc 1] (2011) [WAV]/07 Tutti Frutti.wav /Volumes/Elements/Elvis Presley - Elvis Presley (Legacy Edition) [Disc 1] (2011) [LAME V2]/07 Tutti Frutti.mp3 /Volumes/Elements/Elvis Presley - Elvis Presley (Legacy Edition) [Disc 1] (2011) [FLAC (level 8)]/07 Tutti Frutti.flac Pre-gap length : 00:01:57

Track gain : -5.53 dB Peak : 0.999969 CRC32 hash (test run) : E37D4D79 CRC32 hash : E37D4D79 CRC32 hash (skip zero) : 316FABE4 AccurateRip signature : 387E21D3 ->Track not present in AccurateRip database. Statistics Read error : 0 Jitter error (maybe fixed) : 0 Retry sector count : 0 Damaged sector count : 0

Track 08 Filename : /Volumes/Elements/Elvis Presley - Elvis Presley (Legacy Edition) [Disc 1] (2011) [WAV]/08 Trying To Get To You.wav /Volumes/Elements/Elvis Presley - Elvis Presley (Legacy Edition) [Disc 1] (2011) [LAME V2]/08 Trying To Get To You.mp3 /Volumes/Elements/Elvis Presley - Elvis Presley (Legacy Edition) [Disc 1] (2011) [FLAC (level 8)]/08 Trying To Get To You.flac Pre-gap length : 00:01:57

Track gain : -5.20 dB Peak : 0.975372 CRC32 hash (test run) : 0BF9F8D0 CRC32 hash : 0BF9F8D0 CRC32 hash (skip zero) : 0234E0DA AccurateRip signature : D5BB2ED9 ->Track not present in AccurateRip database. Statistics Read error : 0 Jitter error (maybe fixed) : 0 Retry sector count : 0 Damaged sector count : 0

Track 09 Filename : /Volumes/Elements/Elvis Presley - Elvis Presley (Legacy Edition) [Disc 1] (2011) [WAV]/09 I'm Gonna Sit Right Down And Cry (Over You).wav /Volumes/Elements/Elvis Presley - Elvis Presley (Legacy Edition) [Disc 1] (2011) [LAME V2]/09 I'm Gonna Sit Right Down And Cry (Over You).mp3 /Volumes/Elements/Elvis Presley - Elvis Presley (Legacy Edition) [Disc 1] (2011) [FLAC (level 8)]/09 I'm Gonna Sit Right Down And Cry (Over You).flac Pre-gap length : 00:01:56

Track gain : -5.96 dB Peak : 0.995880 CRC32 hash (test run) : 9A44E481 CRC32 hash : 9A44E481 CRC32 hash (skip zero) : 21F56124 AccurateRip signature : A9DA84B2 ->Track not present in AccurateRip database. Statistics Read error : 0 Jitter error (maybe fixed) : 0 Retry sector count : 0 Damaged sector count : 0

Track 10 Filename : /Volumes/Elements/Elvis Presley - Elvis Presley (Legacy Edition) [Disc 1] (2011) [WAV]/10 I'll Never Let You Go (Little Darlin').wav /Volumes/Elements/Elvis Presley - Elvis Presley (Legacy Edition) [Disc 1] (2011) [LAME V2]/10 I'll Never Let You Go (Little Darlin').mp3 /Volumes/Elements/Elvis Presley - Elvis Presley (Legacy Edition) [Disc 1] (2011) [FLAC (level 8)]/10 I'll Never Let You Go (Little Darlin').flac Pre-gap length : 00:01:56

Track gain : -5.32 dB Peak : 0.952484 CRC32 hash (test run) : 452361BD CRC32 hash : 452361BD CRC32 hash (skip zero) : C1A9E90B AccurateRip signature : C134722B ->Track not present in AccurateRip database. Statistics Read error : 0 Jitter error (maybe fixed) : 0 Retry sector count : 0 Damaged sector count : 0

Track 11 Filename : /Volumes/Elements/Elvis Presley - Elvis Presley (Legacy Edition) [Disc 1] (2011) [WAV]/11 Blue Moon.wav /Volumes/Elements/Elvis Presley - Elvis Presley (Legacy Edition) [Disc 1] (2011) [LAME V2]/11 Blue Moon.mp3 /Volumes/Elements/Elvis Presley - Elvis Presley (Legacy Edition) [Disc 1] (2011) [FLAC (level 8)]/11 Blue Moon.flac Pre-gap length : 00:01:57

Track gain : -1.93 dB Peak : 0.926086 CRC32 hash (test run) : 30CBF4A0 CRC32 hash : 30CBF4A0 CRC32 hash (skip zero) : 39CF6366 AccurateRip signature : 0E89D41D ->Track not present in AccurateRip database. Statistics Read error : 0 Jitter error (maybe fixed) : 0 Retry sector count : 0 Damaged sector count : 0

Track 12 Filename : /Volumes/Elements/Elvis Presley - Elvis Presley (Legacy Edition) [Disc 1] (2011) [WAV]/12 Money Honey.wav /Volumes/Elements/Elvis Presley - Elvis Presley (Legacy Edition) [Disc 1] (2011) [LAME V2]/12 Money Honey.mp3 /Volumes/Elements/Elvis Presley - Elvis Presley (Legacy Edition) [Disc 1] (2011) [FLAC (level 8)]/12 Money Honey.flac Pre-gap length : 00:01:56

Track gain : -4.28 dB Peak : 1.000000 CRC32 hash (test run) : 697A95DC CRC32 hash : 697A95DC CRC32 hash (skip zero) : A02C4844 AccurateRip signature : 271DD7B8 ->Track not present in AccurateRip database. Statistics Read error : 0 Jitter error (maybe fixed) : 0 Retry sector count : 0 Damaged sector count : 0

Track 13 Filename : /Volumes/Elements/Elvis Presley - Elvis Presley (Legacy Edition) [Disc 1] (2011) [WAV]/13 Heartbreak Hotel.wav /Volumes/Elements/Elvis Presley - Elvis Presley (Legacy Edition) [Disc 1] (2011) [LAME V2]/13 Heartbreak Hotel.mp3 /Volumes/Elements/Elvis Presley - Elvis Presley (Legacy Edition) [Disc 1] (2011) [FLAC (level 8)]/13 Heartbreak Hotel.flac Pre-gap length : 00:01:57

Track gain : -5.22 dB Peak : 0.999969 CRC32 hash (test run) : 2751FE20 CRC32 hash : 2751FE20 CRC32 hash (skip zero) : C00A475A AccurateRip signature : 4CF0D7EC ->Track not present in AccurateRip database. Statistics Read error : 0 Jitter error (maybe fixed) : 0 Retry sector count : 0 Damaged sector count : 0

Track 14 Filename : /Volumes/Elements/Elvis Presley - Elvis Presley (Legacy Edition) [Disc 1] (2011) [WAV]/14 I Was The One.wav /Volumes/Elements/Elvis Presley - Elvis Presley (Legacy Edition) [Disc 1] (2011) [LAME V2]/14 I Was The One.mp3 /Volumes/Elements/Elvis Presley - Elvis Presley (Legacy Edition) [Disc 1] (2011) [FLAC (level 8)]/14 I Was The One.flac Pre-gap length : 00:01:56

Track gain : -3.12 dB Peak : 0.999969 CRC32 hash (test run) : F232881B CRC32 hash : F232881B CRC32 hash (skip zero) : 263E2581 AccurateRip signature : 916B1A69 ->Track not present in AccurateRip database. Statistics Read error : 0 Jitter error (maybe fixed) : 0 Retry sector count : 0 Damaged sector count : 0

Track 15 Filename : /Volumes/Elements/Elvis Presley - Elvis Presley (Legacy Edition) [Disc 1] (2011) [WAV]/15 My Baby Left Me.wav /Volumes/Elements/Elvis Presley - Elvis Presley (Legacy Edition) [Disc 1] (2011) [LAME V2]/15 My Baby Left Me.mp3 /Volumes/Elements/Elvis Presley - Elvis Presley (Legacy Edition) [Disc 1] (2011) [FLAC (level 8)]/15 My Baby Left Me.flac Pre-gap length : 00:01:57

Track gain : -5.98 dB Peak : 0.916687 CRC32 hash (test run) : C6ADC1E5 CRC32 hash : C6ADC1E5 CRC32 hash (skip zero) : EE4E649C AccurateRip signature : E0EAC78D ->Track not present in AccurateRip database. Statistics Read error : 0 Jitter error (maybe fixed) : 0 Retry sector count : 0 Damaged sector count : 0

Track 16 Filename : /Volumes/Elements/Elvis Presley - Elvis Presley (Legacy Edition) [Disc 1] (2011) [WAV]/16 Lawdy, Miss Clawdy.wav /Volumes/Elements/Elvis Presley - Elvis Presley (Legacy Edition) [Disc 1] (2011) [LAME V2]/16 Lawdy, Miss Clawdy.mp3 /Volumes/Elements/Elvis Presley - Elvis Presley (Legacy Edition) [Disc 1] (2011) [FLAC (level 8)]/16 Lawdy, Miss Clawdy.flac Pre-gap length : 00:01:57

Track gain : -5.47 dB Peak : 1.000000 CRC32 hash (test run) : AFEC822C CRC32 hash : AFEC822C CRC32 hash (skip zero) : 2A78803F AccurateRip signature : A5DFC6FE ->Track not present in AccurateRip database. Statistics Read error : 0 Jitter error (maybe fixed) : 0 Retry sector count : 0 Damaged sector count : 0

Track 17 Filename : /Volumes/Elements/Elvis Presley - Elvis Presley (Legacy Edition) [Disc 1] (2011) [WAV]/17 Shake, Rattle And Roll.wav /Volumes/Elements/Elvis Presley - Elvis Presley (Legacy Edition) [Disc 1] (2011) [LAME V2]/17 Shake, Rattle And Roll.mp3 /Volumes/Elements/Elvis Presley - Elvis Presley (Legacy Edition) [Disc 1] (2011) [FLAC (level 8)]/17 Shake, Rattle And Roll.flac Pre-gap length : 00:01:57

Track gain : -5.26 dB Peak : 0.979431 CRC32 hash (test run) : C96B42F8 CRC32 hash : C96B42F8 CRC32 hash (skip zero) : DD1A1015 AccurateRip signature : B5F6652F ->Track not present in AccurateRip database. Statistics Read error : 0 Jitter error (maybe fixed) : 0 Retry sector count : 0 Damaged sector count : 0

No errors occurred

End of status report
X Lossless Decoder version 20110924 (136.3)

XLD extraction logfile from 2011-09-28 01:30:56 +0000

Elvis Presley / Elvis Presley (Legacy Edition) [Disc 2]

Used drive : TSSTcorp CD/DVDW SH-S182M (revision SB02)

Ripper mode : XLD Secure RipperDisable audio cache : OK for the drive with a cache less than 1375KiBMake use of C2 pointers : NORead offset correction : 6Max retry count : 100Gap status : Analyzed, Appended (except HTOA)

TOC of the extracted CD Track | Start | Length | Start sector | End sector --------------------------------------------------------- 1 | 00:00:00 | 01:55:06 | 0 | 8630 2 | 01:55:06 | 02:45:43 | 8631 | 21048 3 | 04:40:49 | 02:22:29 | 21049 | 31727 4 | 07:03:03 | 01:54:09 | 31728 | 40286 5 | 08:57:12 | 03:23:43 | 40287 | 55554 6 | 12:20:55 | 02:25:60 | 55555 | 66489 7 | 14:46:40 | 02:22:20 | 66490 | 77159 8 | 17:08:60 | 04:10:21 | 77160 | 95930 9 | 21:19:06 | 01:56:73 | 95931 | 104703 10 | 23:16:04 | 02:26:52 | 104704 | 115705 11 | 25:42:56 | 02:25:58 | 115706 | 126638 12 | 28:08:39 | 02:12:54 | 126639 | 136592 13 | 30:21:18 | 02:41:35 | 136593 | 148702 14 | 33:02:53 | 02:17:68 | 148703 | 159045 15 | 35:20:46 | 02:05:08 | 159046 | 168428 16 | 37:25:54 | 02:15:69 | 168429 | 178622 17 | 39:41:48 | 02:34:45 | 178623 | 190217 18 | 42:16:18 | 02:53:07 | 190218 | 203199 19 | 45:09:25 | 02:42:71 | 203200 | 215420

AccurateRip Summary Disc not found in AccurateRip DB.

All Tracks Album gain : -4.60 dB Peak : 0.999969 Statistics Read error : 0 Jitter error (maybe fixed) : 0 Retry sector count : 0 Damaged sector count : 0

Track 01 Filename : /Volumes/Elements/Elvis Presley - Elvis Presley (Legacy Edition) [Disc 2] (2011) [WAV]/01 Rip It Up.wav /Volumes/Elements/Elvis Presley - Elvis Presley (Legacy Edition) [Disc 2] (2011) [LAME V2]/01 Rip It Up.mp3 /Volumes/Elements/Elvis Presley - Elvis Presley (Legacy Edition) [Disc 2] (2011) [FLAC (level 8)]/01 Rip It Up.flac Pre-gap length : 00:02:00

Track gain : -4.10 dB Peak : 0.999908 CRC32 hash (test run) : 979B7462 CRC32 hash : 979B7462 CRC32 hash (skip zero) : E1BC5011 AccurateRip signature : 5DDDF17D ->Track not present in AccurateRip database. Statistics Read error : 0 Jitter error (maybe fixed) : 0 Retry sector count : 0 Damaged sector count : 0

Track 02 Filename : /Volumes/Elements/Elvis Presley - Elvis Presley (Legacy Edition) [Disc 2] (2011) [WAV]/02 Love Me.wav /Volumes/Elements/Elvis Presley - Elvis Presley (Legacy Edition) [Disc 2] (2011) [LAME V2]/02 Love Me.mp3 /Volumes/Elements/Elvis Presley - Elvis Presley (Legacy Edition) [Disc 2] (2011) [FLAC (level 8)]/02 Love Me.flac Pre-gap length : 00:01:57

Track gain : -6.23 dB Peak : 0.932648 CRC32 hash (test run) : 8FEF01F6 CRC32 hash : 8FEF01F6 CRC32 hash (skip zero) : 66AD1B35 AccurateRip signature : 48A05FCD ->Track not present in AccurateRip database. Statistics Read error : 0 Jitter error (maybe fixed) : 0 Retry sector count : 0 Damaged sector count : 0

Track 03 Filename : /Volumes/Elements/Elvis Presley - Elvis Presley (Legacy Edition) [Disc 2] (2011) [WAV]/03 When My Blue Moon Turns To Gold Again.wav /Volumes/Elements/Elvis Presley - Elvis Presley (Legacy Edition) [Disc 2] (2011) [LAME V2]/03 When My Blue Moon Turns To Gold Again.mp3 /Volumes/Elements/Elvis Presley - Elvis Presley (Legacy Edition) [Disc 2] (2011) [FLAC (level 8)]/03 When My Blue Moon Turns To Gold Again.flac Pre-gap length : 00:01:57

Track gain : -5.02 dB Peak : 0.941071 CRC32 hash (test run) : 61B2374D CRC32 hash : 61B2374D CRC32 hash (skip zero) : 52D32C63 AccurateRip signature : 61172569 ->Track not present in AccurateRip database. Statistics Read error : 0 Jitter error (maybe fixed) : 0 Retry sector count : 0 Damaged sector count : 0

Track 04 Filename : /Volumes/Elements/Elvis Presley - Elvis Presley (Legacy Edition) [Disc 2] (2011) [WAV]/04 Long Tall Sally.wav /Volumes/Elements/Elvis Presley - Elvis Presley (Legacy Edition) [Disc 2] (2011) [LAME V2]/04 Long Tall Sally.mp3 /Volumes/Elements/Elvis Presley - Elvis Presley (Legacy Edition) [Disc 2] (2011) [FLAC (level 8)]/04 Long Tall Sally.flac Pre-gap length : 00:01:56

Track gain : -4.57 dB Peak : 0.866089 CRC32 hash (test run) : DA634D12 CRC32 hash : DA634D12 CRC32 hash (skip zero) : 104F9252 AccurateRip signature : BC02CC81 ->Track not present in AccurateRip database. Statistics Read error : 0 Jitter error (maybe fixed) : 0 Retry sector count : 0 Damaged sector count : 0

Track 05 Filename : /Volumes/Elements/Elvis Presley - Elvis Presley (Legacy Edition) [Disc 2] (2011) [WAV]/05 First In Line.wav /Volumes/Elements/Elvis Presley - Elvis Presley (Legacy Edition) [Disc 2] (2011) [LAME V2]/05 First In Line.mp3 /Volumes/Elements/Elvis Presley - Elvis Presley (Legacy Edition) [Disc 2] (2011) [FLAC (level 8)]/05 First In Line.flac Pre-gap length : 00:01:57

Track gain : -5.97 dB Peak : 0.951508 CRC32 hash (test run) : AE76213E CRC32 hash : AE76213E CRC32 hash (skip zero) : C68461A4 AccurateRip signature : A0F4A0E0 ->Track not present in AccurateRip database. Statistics Read error : 0 Jitter error (maybe fixed) : 0 Retry sector count : 0 Damaged sector count : 0

Track 06 Filename : /Volumes/Elements/Elvis Presley - Elvis Presley (Legacy Edition) [Disc 2] (2011) [WAV]/06 Paralyzed.wav /Volumes/Elements/Elvis Presley - Elvis Presley (Legacy Edition) [Disc 2] (2011) [LAME V2]/06 Paralyzed.mp3 /Volumes/Elements/Elvis Presley - Elvis Presley (Legacy Edition) [Disc 2] (2011) [FLAC (level 8)]/06 Paralyzed.flac Pre-gap length : 00:01:56

Track gain : -4.91 dB Peak : 0.999969 CRC32 hash (test run) : 5C32128D CRC32 hash : 5C32128D CRC32 hash (skip zero) : C536F07C AccurateRip signature : D42B3C84 ->Track not present in AccurateRip database. Statistics Read error : 0 Jitter error (maybe fixed) : 0 Retry sector count : 0 Damaged sector count : 0

Track 07 Filename : /Volumes/Elements/Elvis Presley - Elvis Presley (Legacy Edition) [Disc 2] (2011) [WAV]/07 So Glad You're Mine.wav /Volumes/Elements/Elvis Presley - Elvis Presley (Legacy Edition) [Disc 2] (2011) [LAME V2]/07 So Glad You're Mine.mp3 /Volumes/Elements/Elvis Presley - Elvis Presley (Legacy Edition) [Disc 2] (2011) [FLAC (level 8)]/07 So Glad You're Mine.flac Pre-gap length : 00:01:57

Track gain : -5.31 dB Peak : 0.822296 CRC32 hash (test run) : 004AB160 CRC32 hash : 004AB160 CRC32 hash (skip zero) : DE77447A AccurateRip signature : C4F89BAA ->Track not present in AccurateRip database. Statistics Read error : 0 Jitter error (maybe fixed) : 0 Retry sector count : 0 Damaged sector count : 0

Track 08 Filename : /Volumes/Elements/Elvis Presley - Elvis Presley (Legacy Edition) [Disc 2] (2011) [WAV]/08 Old Shep.wav /Volumes/Elements/Elvis Presley - Elvis Presley (Legacy Edition) [Disc 2] (2011) [LAME V2]/08 Old Shep.mp3 /Volumes/Elements/Elvis Presley - Elvis Presley (Legacy Edition) [Disc 2] (2011) [FLAC (level 8)]/08 Old Shep.flac Pre-gap length : 00:01:56

Track gain : -3.77 dB Peak : 0.997772 CRC32 hash (test run) : FE546E5E CRC32 hash : FE546E5E CRC32 hash (skip zero) : A23D9688 AccurateRip signature : 1A43CAB2 ->Track not present in AccurateRip database. Statistics Read error : 0 Jitter error (maybe fixed) : 0 Retry sector count : 0 Damaged sector count : 0

Track 09 Filename : /Volumes/Elements/Elvis Presley - Elvis Presley (Legacy Edition) [Disc 2] (2011) [WAV]/09 Ready Teddy.wav /Volumes/Elements/Elvis Presley - Elvis Presley (Legacy Edition) [Disc 2] (2011) [LAME V2]/09 Ready Teddy.mp3 /Volumes/Elements/Elvis Presley - Elvis Presley (Legacy Edition) [Disc 2] (2011) [FLAC (level 8)]/09 Ready Teddy.flac Pre-gap length : 00:01:56

Track gain : -4.72 dB Peak : 0.888458 CRC32 hash (test run) : 0B1D6DCB CRC32 hash : 0B1D6DCB CRC32 hash (skip zero) : 5F77E37B AccurateRip signature : AFCE4A39 ->Track not present in AccurateRip database. Statistics Read error : 0 Jitter error (maybe fixed) : 0 Retry sector count : 0 Damaged sector count : 0

Track 10 Filename : /Volumes/Elements/Elvis Presley - Elvis Presley (Legacy Edition) [Disc 2] (2011) [WAV]/10 Anyplace Is Paradise.wav /Volumes/Elements/Elvis Presley - Elvis Presley (Legacy Edition) [Disc 2] (2011) [LAME V2]/10 Anyplace Is Paradise.mp3 /Volumes/Elements/Elvis Presley - Elvis Presley (Legacy Edition) [Disc 2] (2011) [FLAC (level 8)]/10 Anyplace Is Paradise.flac Pre-gap length : 00:01:57

Track gain : -4.15 dB Peak : 0.839050 CRC32 hash (test run) : 3D2286F4 CRC32 hash : 3D2286F4 CRC32 hash (skip zero) : C776B2E6 AccurateRip signature : 44373A99 ->Track not present in AccurateRip database. Statistics Read error : 0 Jitter error (maybe fixed) : 0 Retry sector count : 0 Damaged sector count : 0

Track 11 Filename : /Volumes/Elements/Elvis Presley - Elvis Presley (Legacy Edition) [Disc 2] (2011) [WAV]/11 How's The World Treating You.wav /Volumes/Elements/Elvis Presley - Elvis Presley (Legacy Edition) [Disc 2] (2011) [LAME V2]/11 How's The World Treating You.mp3 /Volumes/Elements/Elvis Presley - Elvis Presley (Legacy Edition) [Disc 2] (2011) [FLAC (level 8)]/11 How's The World Treating You.flac Pre-gap length : 00:01:57

Track gain : -1.59 dB Peak : 0.887360 CRC32 hash (test run) : 9BDB1373 CRC32 hash : 9BDB1373 CRC32 hash (skip zero) : C454A248 AccurateRip signature : D5680CC1 ->Track not present in AccurateRip database. Statistics Read error : 0 Jitter error (maybe fixed) : 0 Retry sector count : 0 Damaged sector count : 0

Track 12 Filename : /Volumes/Elements/Elvis Presley - Elvis Presley (Legacy Edition) [Disc 2] (2011) [WAV]/12 How Do You Think I Feel.wav /Volumes/Elements/Elvis Presley - Elvis Presley (Legacy Edition) [Disc 2] (2011) [LAME V2]/12 How Do You Think I Feel.mp3 /Volumes/Elements/Elvis Presley - Elvis Presley (Legacy Edition) [Disc 2] (2011) [FLAC (level 8)]/12 How Do You Think I Feel.flac Pre-gap length : 00:01:56

Track gain : -4.51 dB Peak : 0.854004 CRC32 hash (test run) : AFD71B6C CRC32 hash : AFD71B6C CRC32 hash (skip zero) : A21DF39C AccurateRip signature : 20AD4E63 ->Track not present in AccurateRip database. Statistics Read error : 0 Jitter error (maybe fixed) : 0 Retry sector count : 0 Damaged sector count : 0

Track 13 Filename : /Volumes/Elements/Elvis Presley - Elvis Presley (Legacy Edition) [Disc 2] (2011) [WAV]/13 I Want You, I Need You, I Love You.wav /Volumes/Elements/Elvis Presley - Elvis Presley (Legacy Edition) [Disc 2] (2011) [LAME V2]/13 I Want You, I Need You, I Love You.mp3 /Volumes/Elements/Elvis Presley - Elvis Presley (Legacy Edition) [Disc 2] (2011) [FLAC (level 8)]/13 I Want You, I Need You, I Love You.flac Pre-gap length : 00:01:57

Track gain : -3.75 dB Peak : 0.806915 CRC32 hash (test run) : 844EE0EA CRC32 hash : 844EE0EA CRC32 hash (skip zero) : 86E5AEA6 AccurateRip signature : E53ADE1D ->Track not present in AccurateRip database. Statistics Read error : 0 Jitter error (maybe fixed) : 0 Retry sector count : 0 Damaged sector count : 0

Track 14 Filename : /Volumes/Elements/Elvis Presley - Elvis Presley (Legacy Edition) [Disc 2] (2011) [WAV]/14 Hound Dog.wav /Volumes/Elements/Elvis Presley - Elvis Presley (Legacy Edition) [Disc 2] (2011) [LAME V2]/14 Hound Dog.mp3 /Volumes/Elements/Elvis Presley - Elvis Presley (Legacy Edition) [Disc 2] (2011) [FLAC (level 8)]/14 Hound Dog.flac Pre-gap length : 00:01:57

Track gain : -5.00 dB Peak : 0.732819 CRC32 hash (test run) : 44BE7B9D CRC32 hash : 44BE7B9D CRC32 hash (skip zero) : C744DFE9 AccurateRip signature : A499C2C5 ->Track not present in AccurateRip database. Statistics Read error : 0 Jitter error (maybe fixed) : 0 Retry sector count : 0 Damaged sector count : 0

Track 15 Filename : /Volumes/Elements/Elvis Presley - Elvis Presley (Legacy Edition) [Disc 2] (2011) [WAV]/15 Don't Be Cruel.wav /Volumes/Elements/Elvis Presley - Elvis Presley (Legacy Edition) [Disc 2] (2011) [LAME V2]/15 Don't Be Cruel.mp3 /Volumes/Elements/Elvis Presley - Elvis Presley (Legacy Edition) [Disc 2] (2011) [FLAC (level 8)]/15 Don't Be Cruel.flac Pre-gap length : 00:01:56

Track gain : -3.99 dB Peak : 0.762421 CRC32 hash (test run) : EE9A3EED CRC32 hash : EE9A3EED CRC32 hash (skip zero) : 0B16DB4B AccurateRip signature : D80EE557 ->Track not present in AccurateRip database. Statistics Read error : 0 Jitter error (maybe fixed) : 0 Retry sector count : 0 Damaged sector count : 0

Track 16 Filename : /Volumes/Elements/Elvis Presley - Elvis Presley (Legacy Edition) [Disc 2] (2011) [WAV]/16 Any Way You Want Me (That's How I Will Be).wav /Volumes/Elements/Elvis Presley - Elvis Presley (Legacy Edition) [Disc 2] (2011) [LAME V2]/16 Any Way You Want Me (That's How I Will Be).mp3 /Volumes/Elements/Elvis Presley - Elvis Presley (Legacy Edition) [Disc 2] (2011) [FLAC (level 8)]/16 Any Way You Want Me (That's How I Will Be).flac Pre-gap length : 00:01:56

Track gain : -4.26 dB Peak : 0.654968 CRC32 hash (test run) : 6E9EF95E CRC32 hash : 6E9EF95E CRC32 hash (skip zero) : AD238597 AccurateRip signature : BB3E1F7B ->Track not present in AccurateRip database. Statistics Read error : 0 Jitter error (maybe fixed) : 0 Retry sector count : 0 Damaged sector count : 0

Track 17 Filename : /Volumes/Elements/Elvis Presley - Elvis Presley (Legacy Edition) [Disc 2] (2011) [WAV]/17 Too Much.wav /Volumes/Elements/Elvis Presley - Elvis Presley (Legacy Edition) [Disc 2] (2011) [LAME V2]/17 Too Much.mp3 /Volumes/Elements/Elvis Presley - Elvis Presley (Legacy Edition) [Disc 2] (2011) [FLAC (level 8)]/17 Too Much.flac Pre-gap length : 00:01:56

Track gain : -4.63 dB Peak : 0.964539 CRC32 hash (test run) : 40545E73 CRC32 hash : 40545E73 CRC32 hash (skip zero) : 26A8C51F AccurateRip signature : 96A83E52 ->Track not present in AccurateRip database. Statistics Read error : 0 Jitter error (maybe fixed) : 0 Retry sector count : 0 Damaged sector count : 0

Track 18 Filename : /Volumes/Elements/Elvis Presley - Elvis Presley (Legacy Edition) [Disc 2] (2011) [WAV]/18 Playing For Keeps.wav /Volumes/Elements/Elvis Presley - Elvis Presley (Legacy Edition) [Disc 2] (2011) [LAME V2]/18 Playing For Keeps.mp3 /Volumes/Elements/Elvis Presley - Elvis Presley (Legacy Edition) [Disc 2] (2011) [FLAC (level 8)]/18 Playing For Keeps.flac Pre-gap length : 00:01:57

Track gain : -4.21 dB Peak : 0.911560 CRC32 hash (test run) : 4F2DEEDF CRC32 hash : 4F2DEEDF CRC32 hash (skip zero) : 392902A2 AccurateRip signature : 827526A4 ->Track not present in AccurateRip database. Statistics Read error : 0 Jitter error (maybe fixed) : 0 Retry sector count : 0 Damaged sector count : 0

Track 19 Filename : /Volumes/Elements/Elvis Presley - Elvis Presley (Legacy Edition) [Disc 2] (2011) [WAV]/19 Love Me Tender.wav /Volumes/Elements/Elvis Presley - Elvis Presley (Legacy Edition) [Disc 2] (2011) [LAME V2]/19 Love Me Tender.mp3 /Volumes/Elements/Elvis Presley - Elvis Presley (Legacy Edition) [Disc 2] (2011) [FLAC (level 8)]/19 Love Me Tender.flac Pre-gap length : 00:01:56

Track gain : -2.57 dB Peak : 0.899536 CRC32 hash (test run) : 7237D4C0 CRC32 hash : 7237D4C0 CRC32 hash (skip zero) : 72834F6F AccurateRip signature : 2AB0B758 ->Track not present in AccurateRip database. Statistics Read error : 0 Jitter error (maybe fixed) : 0 Retry sector count : 0 Damaged sector count : 0

No errors occurred

End of status report
TITLE "Elvis Presley (Legacy Edition) [Disc 1]"PERFORMER "Elvis Presley"REM GENRE "Rock"REM DATE "2011"REM DISCNUMBER 1REM TOTALDISCS 2REM DISCID D7097311REM REPLAYGAIN_ALBUM_GAIN -5.22 dBREM REPLAYGAIN_ALBUM_PEAK 1.000000FILE "01 Blue Suede Shoes.flac" WAVE TRACK 01 AUDIO TITLE "Blue Suede Shoes" ISRC H2IM15602848 REM REPLAYGAIN_TRACK_GAIN -6.34 dB REM REPLAYGAIN_TRACK_PEAK 0.931854 INDEX 01 00:00:00 TRACK 02 AUDIO TITLE "I'm Counting On You" ISRC H2IM15601859 REM REPLAYGAIN_TRACK_GAIN -3.57 dB REM REPLAYGAIN_TRACK_PEAK 0.999969 INDEX 00 02:00:45FILE "02 I'm Counting On You.flac" WAVE INDEX 01 00:00:00 TRACK 03 AUDIO TITLE "I Got A Woman" ISRC H2IM15602865 REM REPLAYGAIN_TRACK_GAIN -4.35 dB REM REPLAYGAIN_TRACK_PEAK 0.933411 INDEX 00 02:23:29FILE "03 I Got A Woman.flac" WAVE INDEX 01 00:00:00 TRACK 04 AUDIO TITLE "One-Sided Love Affair" ISRC H2IM15602851 REM REPLAYGAIN_TRACK_GAIN -5.68 dB REM REPLAYGAIN_TRACK_PEAK 0.781769 INDEX 00 02:24:06FILE "04 One-Sided Love Affair.flac" WAVE INDEX 01 00:00:00 TRACK 05 AUDIO TITLE "I Love You Because" ISRC H2IM15408136 REM REPLAYGAIN_TRACK_GAIN -4.69 dB REM REPLAYGAIN_TRACK_PEAK 0.939453 INDEX 00 02:09:46FILE "05 I Love You Because.flac" WAVE INDEX 01 00:00:00 TRACK 06 AUDIO TITLE "Just Because" ISRC H2IM15401854 REM REPLAYGAIN_TRACK_GAIN -5.02 dB REM REPLAYGAIN_TRACK_PEAK 0.854248 INDEX 00 02:39:27FILE "06 Just Because.flac" WAVE INDEX 01 00:00:00 TRACK 07 AUDIO TITLE "Tutti Frutti" ISRC H2IM15602850 REM REPLAYGAIN_TRACK_GAIN -5.53 dB REM REPLAYGAIN_TRACK_PEAK 0.999969 INDEX 00 02:32:69FILE "07 Tutti Frutti.flac" WAVE INDEX 01 00:00:00 TRACK 08 AUDIO TITLE "Trying To Get To You" ISRC H2IM15501857 REM REPLAYGAIN_TRACK_GAIN -5.20 dB REM REPLAYGAIN_TRACK_PEAK 0.975372 INDEX 00 01:57:31FILE "08 Trying To Get To You.flac" WAVE INDEX 01 00:00:00 TRACK 09 AUDIO TITLE "I'm Gonna Sit Right Down And Cry (Over You)" ISRC H2IM15601943 REM REPLAYGAIN_TRACK_GAIN -5.96 dB REM REPLAYGAIN_TRACK_PEAK 0.995880 INDEX 00 02:31:48FILE "09 I'm Gonna Sit Right Down And Cry (Over You).flac" WAVE INDEX 01 00:00:00 TRACK 10 AUDIO TITLE "I'll Never Let You Go (Little Darlin')" ISRC H2IM15401855 REM REPLAYGAIN_TRACK_GAIN -5.32 dB REM REPLAYGAIN_TRACK_PEAK 0.952484 INDEX 00 02:03:19FILE "10 I'll Never Let You Go (Little Darlin').flac" WAVE INDEX 01 00:00:00 TRACK 11 AUDIO TITLE "Blue Moon" ISRC H2IM15408328 REM REPLAYGAIN_TRACK_GAIN -1.93 dB REM REPLAYGAIN_TRACK_PEAK 0.926086 INDEX 00 02:23:66FILE "11 Blue Moon.flac" WAVE INDEX 01 00:00:00 TRACK 12 AUDIO TITLE "Money Honey" ISRC H2IM15602867 REM REPLAYGAIN_TRACK_GAIN -4.28 dB REM REPLAYGAIN_TRACK_PEAK 1.000000 INDEX 00 02:42:20FILE "12 Money Honey.flac" WAVE INDEX 01 00:00:00 TRACK 13 AUDIO TITLE "Heartbreak Hotel" ISRC H2IM15602846 REM REPLAYGAIN_TRACK_GAIN -5.22 dB REM REPLAYGAIN_TRACK_PEAK 0.999969 INDEX 00 02:35:33FILE "13 Heartbreak Hotel.flac" WAVE INDEX 01 00:00:00 TRACK 14 AUDIO TITLE "I Was The One" ISRC H2IM15602866 REM REPLAYGAIN_TRACK_GAIN -3.12 dB REM REPLAYGAIN_TRACK_PEAK 0.999969 INDEX 00 02:07:66FILE "14 I Was The One.flac" WAVE INDEX 01 00:00:00 TRACK 15 AUDIO TITLE "My Baby Left Me" ISRC H2IM15602847 REM REPLAYGAIN_TRACK_GAIN -5.98 dB REM REPLAYGAIN_TRACK_PEAK 0.916687 INDEX 00 02:32:24FILE "15 My Baby Left Me.flac" WAVE INDEX 01 00:00:00 TRACK 16 AUDIO TITLE "Lawdy, Miss Clawdy" ISRC H2IM15602860 REM REPLAYGAIN_TRACK_GAIN -5.47 dB REM REPLAYGAIN_TRACK_PEAK 1.000000 INDEX 00 02:13:03FILE "16 Lawdy, Miss Clawdy.flac" WAVE INDEX 01 00:00:00 TRACK 17 AUDIO TITLE "Shake, Rattle And Roll" ISRC H2IM15607491 REM REPLAYGAIN_TRACK_GAIN -5.26 dB REM REPLAYGAIN_TRACK_PEAK 0.979431 INDEX 00 02:07:54FILE "17 Shake, Rattle And Roll.flac" WAVE INDEX 01 00:00:00
TITLE "Elvis Presley (Legacy Edition) [Disc 2]"PERFORMER "Elvis Presley"REM GENRE "Rock"REM DATE "2011"REM DISCNUMBER 2REM TOTALDISCS 2REM DISCID 030B3813REM REPLAYGAIN_ALBUM_GAIN -4.60 dBREM REPLAYGAIN_ALBUM_PEAK 0.999969FILE "01 Rip It Up.flac" WAVE TRACK 01 AUDIO TITLE "Rip It Up" ISRC H2IM15602863 REM REPLAYGAIN_TRACK_GAIN -4.10 dB REM REPLAYGAIN_TRACK_PEAK 0.999908 INDEX 01 00:00:00 TRACK 02 AUDIO TITLE "Love Me" ISRC H2IM15602852 REM REPLAYGAIN_TRACK_GAIN -6.23 dB REM REPLAYGAIN_TRACK_PEAK 0.932648 INDEX 00 01:53:24FILE "02 Love Me.flac" WAVE INDEX 01 00:00:00 TRACK 03 AUDIO TITLE "When My Blue Moon Turns To Gold Again" ISRC H2IM15603927 REM REPLAYGAIN_TRACK_GAIN -5.02 dB REM REPLAYGAIN_TRACK_PEAK 0.941071 INDEX 00 02:43:61FILE "03 When My Blue Moon Turns To Gold Again.flac" WAVE INDEX 01 00:00:00 TRACK 04 AUDIO TITLE "Long Tall Sally" ISRC H2IM15607468 REM REPLAYGAIN_TRACK_GAIN -4.57 dB REM REPLAYGAIN_TRACK_PEAK 0.866089 INDEX 00 02:20:48FILE "04 Long Tall Sally.flac" WAVE INDEX 01 00:00:00 TRACK 05 AUDIO TITLE "First In Line" ISRC H2IM15607494 REM REPLAYGAIN_TRACK_GAIN -5.97 dB REM REPLAYGAIN_TRACK_PEAK 0.951508 INDEX 00 01:52:27FILE "05 First In Line.flac" WAVE INDEX 01 00:00:00 TRACK 06 AUDIO TITLE "Paralyzed" ISRC H2IM15602854 REM REPLAYGAIN_TRACK_GAIN -4.91 dB REM REPLAYGAIN_TRACK_PEAK 0.999969 INDEX 00 03:21:62FILE "06 Paralyzed.flac" WAVE INDEX 01 00:00:00 TRACK 07 AUDIO TITLE "So Glad You're Mine" ISRC H2IM15602849 REM REPLAYGAIN_TRACK_GAIN -5.31 dB REM REPLAYGAIN_TRACK_PEAK 0.822296 INDEX 00 02:24:03FILE "07 So Glad You're Mine.flac" WAVE INDEX 01 00:00:00 TRACK 08 AUDIO TITLE "Old Shep" ISRC H2IM15603928 REM REPLAYGAIN_TRACK_GAIN -3.77 dB REM REPLAYGAIN_TRACK_PEAK 0.997772 INDEX 00 02:20:39FILE "08 Old Shep.flac" WAVE INDEX 01 00:00:00 TRACK 09 AUDIO TITLE "Ready Teddy" ISRC H2IM15602855 REM REPLAYGAIN_TRACK_GAIN -4.72 dB REM REPLAYGAIN_TRACK_PEAK 0.888458 INDEX 00 04:08:40FILE "09 Ready Teddy.flac" WAVE INDEX 01 00:00:00 TRACK 10 AUDIO TITLE "Anyplace Is Paradise" ISRC H2IM15602853 REM REPLAYGAIN_TRACK_GAIN -4.15 dB REM REPLAYGAIN_TRACK_PEAK 0.839050 INDEX 00 01:55:16FILE "10 Anyplace Is Paradise.flac" WAVE INDEX 01 00:00:00 TRACK 11 AUDIO TITLE "How's The World Treating You" ISRC H2IM15607466 REM REPLAYGAIN_TRACK_GAIN -1.59 dB REM REPLAYGAIN_TRACK_PEAK 0.887360 INDEX 00 02:24:70FILE "11 How's The World Treating You.flac" WAVE INDEX 01 00:00:00 TRACK 12 AUDIO TITLE "How Do You Think I Feel" ISRC H2IM15607467 REM REPLAYGAIN_TRACK_GAIN -4.51 dB REM REPLAYGAIN_TRACK_PEAK 0.854004 INDEX 00 02:24:02FILE "12 How Do You Think I Feel.flac" WAVE INDEX 01 00:00:00 TRACK 13 AUDIO TITLE "I Want You, I Need You, I Love You" ISRC H2IM15602862 REM REPLAYGAIN_TRACK_GAIN -3.75 dB REM REPLAYGAIN_TRACK_PEAK 0.806915 INDEX 00 02:10:72FILE "13 I Want You, I Need You, I Love You.flac" WAVE INDEX 01 00:00:00 TRACK 14 AUDIO TITLE "Hound Dog" ISRC H2IM15602857 REM REPLAYGAIN_TRACK_GAIN -5.00 dB REM REPLAYGAIN_TRACK_PEAK 0.732819 INDEX 00 02:39:53FILE "14 Hound Dog.flac" WAVE INDEX 01 00:00:00 TRACK 15 AUDIO TITLE "Don't Be Cruel" ISRC H2IM15602859 REM REPLAYGAIN_TRACK_GAIN -3.99 dB REM REPLAYGAIN_TRACK_PEAK 0.762421 INDEX 00 02:16:12FILE "15 Don't Be Cruel.flac" WAVE INDEX 01 00:00:00 TRACK 16 AUDIO TITLE "Any Way You Want Me (That's How I Will Be)" ISRC H2IM15602858 REM REPLAYGAIN_TRACK_GAIN -4.26 dB REM REPLAYGAIN_TRACK_PEAK 0.654968 INDEX 00 02:03:27FILE "16 Any Way You Want Me (That's How I Will Be).flac" WAVE INDEX 01 00:00:00 TRACK 17 AUDIO TITLE "Too Much" ISRC H2IM15604928 REM REPLAYGAIN_TRACK_GAIN -4.63 dB REM REPLAYGAIN_TRACK_PEAK 0.964539 INDEX 00 02:14:13FILE "17 Too Much.flac" WAVE INDEX 01 00:00:00 TRACK 18 AUDIO TITLE "Playing For Keeps" ISRC H2IM15605819 REM REPLAYGAIN_TRACK_GAIN -4.21 dB REM REPLAYGAIN_TRACK_PEAK 0.911560 INDEX 00 02:32:63FILE "18 Playing For Keeps.flac" WAVE INDEX 01 00:00:00 TRACK 19 AUDIO TITLE "Love Me Tender" ISRC H2IM15605813 REM REPLAYGAIN_TRACK_GAIN -2.57 dB REM REPLAYGAIN_TRACK_PEAK 0.899536 INDEX 00 02:51:26FILE "19 Love Me Tender.flac" WAVE INDEX 01 00:00:00


Трекер:  [ 11-Ноя-2012 17:55 ]

  

Скачать .torrent

Размер .torrent файла 16 KB


Размер: 329 MB
Хэш (hash) релиза: 16fb946611ae22dea3282a323733f467e5394dca

Торренты, похожие на Elvis Presley - Elvis Presley скачать торрент

Форум Название Автор Размер S L Добавлен
Rосk | Mеtаl | Аltеrnаtivе, Рunk, Indереndеnt (mр3) ·· (Rock & Roll) Elvis Presley - The Real ... Elvis - The Ultimate Elvis Presley Collection - 3CD - 2011, MP3, 320 kbps Devil_Black 517447249493 MB 0 0 1326789101

11:31

17-Янв-12

Rосk | Mеtаl | Аltеrnаtivе, Рunk, Indереndеnt (mр3) ·· (Rock) Elvis Presley - The Wonder Of You: Elvis Presley With The Royal Philharmonic Orchestra - 2016, MP3, 320 kbps Galfimbul 126283151120 MB 0 0 1477251971

22:46

23-Окт-16

Rосk | Mеtаl | Аltеrnаtivе, Рunk, Indереndеnt (mр3) ·· (Rock & Roll) Elvis Presley - Young Man with the Big Beat: The Complete '56 Elvis Presley Masters - 2011, MP3, 320 kbps Galfimbul 723118332690 MB 0 0 1362294662

10:11

3-Мар-13

Rосk | Mеtаl | Аltеrnаtivе, Рunk, Indереndеnt (losslеss) ·· (Rock & Roll) Elvis Presley - Young Man with the Big Beat: The Complete '56 Elvis Presley Masters - 2011, FLAC (tracks+.cue), lossless _N_ 11517191691.07 GB 0 0 1361730899

21:34

24-Фев-13

Зарубежный Rock ·· (Rockabilly, Rock'n'Roll) Elvis Presley - Elvis Presley -14 Classic Tracks (Slam Music) - 2010, MP3, 320 kbps Galfimbul 114812817109 MB 0 0 1349007600

15:20

30-Сен-12

Зарубежный Rock ·· (Rockabilly, Rock'n'Roll) Elvis Presley - Elvis Presley -14 Classic Tracks (Slam Music) - 2010, MP3, 320 kbps Galfimbul 114812817109 MB 0 0 1348469280

09:48

24-Сен-12

Rосk | Mеtаl | Аltеrnаtivе, Рunk, Indереndеnt (losslеss) ·· (Rock & Roll) Elvis Presley - Young Man with the Big Beat: The Complete '56 Elvis Presley Masters - 2011, FLAC (tracks), lossless Umakiro 11707530381.09 GB 0 0 1337490720

08:12

20-Май-12

Rосk | Mеtаl | Аltеrnаtivе, Рunk, Indереndеnt (mр3) ·· (Rock'n'Roll) Elvis Presley - The Essential Elvis Presley - 2007, mp3 320 kbps Galfimbul 230192511220 MB 0 0 1327131092

10:31

21-Янв-12

Rосk | Mеtаl | Аltеrnаtivе, Рunk, Indереndеnt (mр3) ·· (Rock'N'Roll) Elvis Presley - The Real... Elvis 60's Collection (3CD) - 2014, MP3, 320 kbps Galfimbul 336677764321 MB 0 0 1504271159

16:05

1-Сен-17

Rосk | Mеtаl | Аltеrnаtivе, Рunk, Indереndеnt (mр3) ·· (Rock & Roll, Soul, Pop, Christmas) Elvis Presley - Elvis: Ultimate Christmas 2CD - 2015, MP3, 320 kbps Galfimbul 203622991194 MB 1 1 1450101896

17:04

14-Дек-15

Rосk | Mеtаl | Аltеrnаtivе, Рunk, Indереndеnt (mр3) ·· (Pop) Elvis Presley - If I Can Dream: Elvis With The Royal Philharmonic Orchestra - 2015, MP3, 320 kbps Galfimbul 120904366115 MB 0 0 1447647252

07:14

16-Ноя-15

Rосk | Mеtаl | Аltеrnаtivе, Рunk, Indереndеnt (losslеss) ·· (Rock, Rock'n'Roll, Rockabilly, Elvis Presley Cover) Triple Dynamite (ex-Batmobile) - Elvis In Wonderland - 2006, APE (image+.cue), lossless Galfimbul 228525650218 MB 0 0 1369254839

23:33

22-Май-13

Rосk | Mеtаl | Аltеrnаtivе, Рunk, Indереndеnt (mр3) ·· (Rock, Rock & Roll, Country, Ballad, Gospel, Soundt) Elvis Presley - Brilliant Elvis: The Collections {8CD Box Set, Limited Edition} - 2013, MP3, 320 kbps Galfimbul 16906976171.57 GB 0 0 1362294593

10:09

3-Мар-13

Rосk | Mеtаl | Аltеrnаtivе, Рunk, Indереndеnt (losslеss) ·· (Rock, Rock & Roll, Country, Ballad, Gospel, Soundtrack) Elvis Presley - Brilliant Elvis: The Collections (Box Set, Limited Edition) - 2013, (Cath Clothes Records CR201305 EU), FLAC (image+.cue), lossless _N_ 28005051602.61 GB 0 0 1361730891

21:34

24-Фев-13

Зарубежный Rock ·· (Soundtrack, Rock & Roll) Elvis Presley - Elvis Double Features (4CD BOXSET) , APE (image+.cue) Umakiro 12255762311.14 GB 0 0 1338820200

17:30

4-Июн-12

Rосk | Mеtаl | Аltеrnаtivе, Рunk, Indереndеnt (mр3) ·· (Rock'n'Roll, Elvis Presley covers) Bill Hurley - Angel To Memphis: A Tribute To Elvis - 2000, MP3, 320 kbps Galfimbul 10067182096 MB 0 0 1336842180

20:03

12-Май-12

Rосk | Mеtаl | Аltеrnаtivе, Рunk, Indереndеnt (mр3) ·· (Rock'n'Roll, Rockabilly, Rock) Elvis Presley - Our Memories Of Elvis - 2012, MP3, 320 kbps _N_ 307146283293 MB 0 0 1334994540

10:49

21-Апр-12

Rосk | Mеtаl | Аltеrnаtivе, Рunk, Indереndеnt (losslеss) ·· (Rock'N'Roll) Elvis Presley - Elvis 75 - 2010, WavPack (tracks+.cue), lossless _N_ 381543236364 MB 0 0 1323980973

23:29

15-Дек-11

Rосk | Mеtаl | Аltеrnаtivе, Рunk, Indереndеnt (losslеss) ·· (Rock'n'Roll, Holiday) Elvis Presley - Elvis Christmas Album - 2011, FLAC (tracks+.cue), lossless Galfimbul 316428085302 MB 0 0 1323542702

21:45

10-Дек-11

Еще никто не оставлял запись к записи скачать торрент Elvis Presley - Elvis Presley . Будь первым!

!Обратная связь