Скачать через торрент музыку The Mercurys - Atomic Blonde - 1996, FLAC бесплатно без регистрации torrent

Если у вас наблюдаются проблемы со скриншотами, переходом по ссылками, скачиванием торрентов - проблемы в блокировщике рекламы AdBlock. #хорошегоДня!


Статистика раздачи
Размер:  237 MB   |    Зарегистрирован:  4 года 9 месяцев   |    .torrent скачан:  7 раз   |   
Раздают:  1  
   
Загрузка...
 
Автор Сообщение

Galfimbul

avatar Galfimbul


The Mercurys / Atomic Blonde

Жанр: Neo Rockabilly
Страна-производитель диска: Holland
Год издания: 1996
Издатель (лейбл): KIX4U Records
Номер по каталогу: KIXCD 3368
Страна: England
Аудиокодек: FLAC (*.flac)
Тип рипа: image+.cue
Битрейт аудио: lossless
Продолжительность: 41:05
Источник (релизер): AUDELAS KINGDOM
Наличие сканов в содержимом раздачи: да
01. Atomic Blonde
02. Ubangi Stomp
03. My Car Has Broken Down
04. Cindy Lou
05. Speed Restriction
06. Rockin' Daddy
07. Comin' Home To You
08. She Put A Spell On Me
09. Blue Days Black Nights
10. Troubled Man
11. Highschool Confidential
12. Devil In High Heels
13. Sittin' On Top Of The World
14. Hot Rod Girl
15. Bad To The Bone
16. Mad Not Mad
17. Credit Card Blues
18. Roses Are Blooming

Exact Audio Copy V1.0 beta 2 from 29. April 2011

EAC extraction logfile from 3. November 2012, 19:41

The Mercurys / Atomic Blonde

Used drive : _NEC DVD_RW ND-3550A Adapter: 1 ID: 0

Read mode : SecureUtilize accurate stream : YesDefeat audio cache : YesMake use of C2 pointers : No

Read offset correction : 48Overread into Lead-In and Lead-Out : NoFill up missing offset samples with silence : YesDelete leading and trailing silent blocks : NoNull samples used in CRC calculations : YesUsed interface : Native Win32 interface for Win NT & 2000

Used output format : User Defined EncoderSelected bitrate : 768 kBit/sQuality : HighAdd ID3 tag : NoCommand line compressor : C:\Program Files\Exact Audio Copy\FLAC\FLAC.EXEAdditional command line options : -6 -V -T "ARTIST=%artist%" -T "TITLE=%title%" -T "ALBUM=%albumtitle%" -T "DATE=%year%" -T "TRACKNUMBER=%tracknr%" -T "GENRE=%genre%" -T "COMMENT=%comment%" -T "BAND=%albuminterpret%" -T "COMPOSER=%composer%" %haslyrics%--ta

TOC of the extracted CD

Track | Start | Length | Start sector | End sector --------------------------------------------------------- 1 | 0:00.00 | 2:16.65 | 0 | 10264 2 | 2:16.65 | 2:39.35 | 10265 | 22224 3 | 4:56.25 | 2:06.71 | 22225 | 31745 4 | 7:03.21 | 2:33.06 | 31746 | 43226 5 | 9:36.27 | 2:08.07 | 43227 | 52833 6 | 11:44.34 | 2:18.22 | 52834 | 63205 7 | 14:02.56 | 2:57.06 | 63206 | 76486 8 | 16:59.62 | 2:11.45 | 76487 | 86356 9 | 19:11.32 | 2:02.51 | 86357 | 95557 10 | 21:14.08 | 1:58.19 | 95558 | 104426 11 | 23:12.27 | 2:51.18 | 104427 | 117269 12 | 26:03.45 | 1:58.30 | 117270 | 126149 13 | 28:02.00 | 1:59.74 | 126150 | 135148 14 | 30:01.74 | 1:48.11 | 135149 | 143259 15 | 31:50.10 | 3:14.48 | 143260 | 157857 16 | 35:04.58 | 1:44.03 | 157858 | 165660 17 | 36:48.61 | 2:13.71 | 165661 | 175706 18 | 39:02.57 | 1:59.39 | 175707 | 184670

Range status and errors

Selected range

Filename D:\Muzika\The Mercurys - Atomic Blonde (1996)\The Mercurys - Atomic Blonde.wav

Peak level 100.0 % Extraction speed 1.8 X Range quality 100.0 % Test CRC D5540300 Copy CRC D5540300 Copy OK

No errors occurred

AccurateRip summary

Track 1 not present in databaseTrack 2 not present in databaseTrack 3 not present in databaseTrack 4 not present in databaseTrack 5 not present in databaseTrack 6 not present in databaseTrack 7 not present in databaseTrack 8 not present in databaseTrack 9 not present in databaseTrack 10 not present in databaseTrack 11 not present in databaseTrack 12 not present in databaseTrack 13 not present in databaseTrack 14 not present in databaseTrack 15 not present in databaseTrack 16 not present in databaseTrack 17 not present in databaseTrack 18 not present in database

None of the tracks are present in the AccurateRip database

End of status report

==== Log checksum FCB254D1F8AE014AF41102F20FFF512F9E7B1493EB60F42EFDBAFB63E460EDFC ====


Трекер:  [ 11-Ноя-2012 17:55 ]

  

Скачать .torrent

Размер .torrent файла 19 KB


Размер: 237 MB
Хэш (hash) релиза: 26fd8541141d64573ee4d9681ee3c4d1f1d40d3d

Еще никто не оставлял запись к записи скачать торрент The Mercurys - Atomic Blonde - 1996, FLAC . Будь первым!

!Обратная связь