Скачать через торрент музыку The Marcels - The Best Of The Marcels 61-63 - 1990, FLAC бесплатно без регистрации torrent

Если у вас наблюдаются проблемы со скриншотами, переходом по ссылками, скачиванием торрентов - проблемы в блокировщике рекламы AdBlock. #хорошегоДня!


Статистика раздачи
Размер:  264 MB   |    Зарегистрирован:  4 года 9 месяцев   |    .torrent скачан:  3 раза   |   
Раздают:  1  
   
Загрузка...
 
Автор Сообщение

Galfimbul

avatar Galfimbul


The Marcels / The Best Of The Marcels

Жанр: Doo Wop
Страна-производитель диска: USA
Год издания: 1990
Издатель (лейбл): Rhino Records Inc.
Номер по каталогу: R2 70953
Страна: USA
Аудиокодек: FLAC (*.flac)
Тип рипа: image+.cue
Битрейт аудио: lossless
Продолжительность: 47:02
Источник (релизер): AUDELAS KINGDOM
Наличие сканов в содержимом раздачи: да
01. Blue Moon
02. I'll Be Forever Loving You
03. I Wanna Be The Leader
04. That Old Black Magic
05. Honestly Sincere
06. Footprints In The Sand
07. Summertime
08. Heartaches
09. Allright, Okay, You Win
10. Goodbye To Love
11. Find Another Fool
12. My Melancholy Baby
13. Sweet Was The Wine
14. One Last Kiss
15. Friendly Loans
16. Crazy Bells
17. Blue Heartaches
18. Over The Rainbow

Exact Audio Copy V1.0 beta 2 from 29. April 2011

EAC extraction logfile from 4. November 2012, 9:24

The Marcels / The Best Of The Marcels

Used drive : _NEC DVD_RW ND-3550A Adapter: 1 ID: 0

Read mode : SecureUtilize accurate stream : YesDefeat audio cache : YesMake use of C2 pointers : No

Read offset correction : 48Overread into Lead-In and Lead-Out : NoFill up missing offset samples with silence : YesDelete leading and trailing silent blocks : NoNull samples used in CRC calculations : YesUsed interface : Native Win32 interface for Win NT & 2000

Used output format : User Defined EncoderSelected bitrate : 768 kBit/sQuality : HighAdd ID3 tag : NoCommand line compressor : C:\Program Files\Exact Audio Copy\FLAC\FLAC.EXEAdditional command line options : -6 -V -T "ARTIST=%artist%" -T "TITLE=%title%" -T "ALBUM=%albumtitle%" -T "DATE=%year%" -T "TRACKNUMBER=%tracknr%" -T "GENRE=%genre%" -T "COMMENT=%comment%" -T "BAND=%albuminterpret%" -T "COMPOSER=%composer%" %haslyrics%--ta

TOC of the extracted CD

Track | Start | Length | Start sector | End sector --------------------------------------------------------- 1 | 0:00.00 | 2:17.27 | 0 | 10301 2 | 2:17.27 | 2:23.43 | 10302 | 21069 3 | 4:40.70 | 2:23.17 | 21070 | 31811 4 | 7:04.12 | 2:18.18 | 31812 | 42179 5 | 9:22.30 | 2:26.67 | 42180 | 53196 6 | 11:49.22 | 2:24.65 | 53197 | 64061 7 | 14:14.12 | 2:16.18 | 64062 | 74279 8 | 16:30.30 | 2:34.50 | 74280 | 85879 9 | 19:05.05 | 2:42.65 | 85880 | 98094 10 | 21:47.70 | 2:36.20 | 98095 | 109814 11 | 24:24.15 | 2:38.12 | 109815 | 121676 12 | 27:02.27 | 2:30.10 | 121677 | 132936 13 | 29:32.37 | 2:11.28 | 132937 | 142789 14 | 31:43.65 | 2:36.60 | 142790 | 154549 15 | 34:20.50 | 2:23.37 | 154550 | 165311 16 | 36:44.12 | 2:21.23 | 165312 | 175909 17 | 39:05.35 | 2:37.62 | 175910 | 187746 18 | 41:43.22 | 2:37.48 | 187747 | 199569

Range status and errors

Selected range

Filename D:\Muzika\The Marcels - The Best Of The Marcels (1990)\The Marcels - The Best Of The Marcels.wav

Peak level 100.0 % Extraction speed 2.0 X Range quality 100.0 % Test CRC 7234180B Copy CRC 7234180B Copy OK

No errors occurred

AccurateRip summary

Track 1 not present in databaseTrack 2 not present in databaseTrack 3 not present in databaseTrack 4 not present in databaseTrack 5 not present in databaseTrack 6 not present in databaseTrack 7 not present in databaseTrack 8 not present in databaseTrack 9 not present in databaseTrack 10 not present in databaseTrack 11 not present in databaseTrack 12 not present in databaseTrack 13 not present in databaseTrack 14 not present in databaseTrack 15 not present in databaseTrack 16 not present in databaseTrack 17 not present in databaseTrack 18 not present in database

None of the tracks are present in the AccurateRip database

End of status report

==== Log checksum 31E33D8EB788754524D197734CC1330CC48525C5BBA0D6E4AE1411434196DFD1 ====


Трекер:  [ 11-Ноя-2012 17:55 ]

  

Скачать .torrent

Размер .torrent файла 11 KB


Размер: 264 MB
Хэш (hash) релиза: 5414dd6ba66d075d03930516985e9b93fba3fd8a

Еще никто не оставлял запись к записи скачать торрент The Marcels - The Best Of The Marcels 61-63 - 1990, FLAC . Будь первым!

!Обратная связь