Скачать через торрент музыку The Medallions Feat. Vernon Green - Speedin 54-60 - 1996, FLAC бесплатно без регистрации torrent

Если у вас наблюдаются проблемы со скриншотами, переходом по ссылками, скачиванием торрентов - проблемы в блокировщике рекламы AdBlock. #хорошегоДня!


Статистика раздачи
Размер:  329 MB   |    Зарегистрирован:  5 лет   |    .torrent скачан:  7 раз   |   
Раздают:  1  
   
Загрузка...
 
Автор Сообщение

Galfimbul

avatar Galfimbul


The Medallions Feat. Vernon Green / Speedin'

Жанр: Doo Wop
Страна-производитель диска: UK
Год издания: 1996
Издатель (лейбл): Ace Records
Номер по каталогу: CDCHD 536
Страна: USA
Аудиокодек: FLAC (*.flac)
Тип рипа: image+.cue
Битрейт аудио: lossless
Продолжительность: 69:00
Источник (релизер): AUDELAS KINGDOM
Наличие сканов в содержимом раздачи: да
01. Speedin'
02. Magic Mountain
03. I Wonder, Wonder, Wonder
04. The Letter
05. Dance And Swing
06. Dear Darling
07. Push Button Automobile
08. A Lover's Prayer
09. Edna
10. '59 Volvo
11. Unseen
12. Ticket To Love
13. I'm In Love With You
14. Buick '59
15. Behind The Door
16. Don't Shoot Baby
17. I Want A Love
18. My Mary Lou
19. For Better Or For Worse
20. Give Me The Right
21. The Telegram
22. Rocket Ship
23. Did You Have?
24. Coupe De Ville Baby
25. Shedding Tears For You

Exact Audio Copy V1.0 beta 2 from 29. April 2011

EAC extraction logfile from 4. November 2012, 13:19

The Medallions Feat. Vernon Green / Speedin'

Used drive : _NEC DVD_RW ND-3550A Adapter: 1 ID: 0

Read mode : SecureUtilize accurate stream : YesDefeat audio cache : YesMake use of C2 pointers : No

Read offset correction : 48Overread into Lead-In and Lead-Out : NoFill up missing offset samples with silence : YesDelete leading and trailing silent blocks : NoNull samples used in CRC calculations : YesUsed interface : Native Win32 interface for Win NT & 2000

Used output format : User Defined EncoderSelected bitrate : 768 kBit/sQuality : HighAdd ID3 tag : NoCommand line compressor : C:\Program Files\Exact Audio Copy\FLAC\FLAC.EXEAdditional command line options : -6 -V -T "ARTIST=%artist%" -T "TITLE=%title%" -T "ALBUM=%albumtitle%" -T "DATE=%year%" -T "TRACKNUMBER=%tracknr%" -T "GENRE=%genre%" -T "COMMENT=%comment%" -T "BAND=%albuminterpret%" -T "COMPOSER=%composer%" %haslyrics%--ta

TOC of the extracted CD

Track | Start | Length | Start sector | End sector --------------------------------------------------------- 1 | 0:00.00 | 2:11.50 | 0 | 9874 2 | 2:11.50 | 3:26.00 | 9875 | 25324 3 | 5:37.50 | 2:40.00 | 25325 | 37324 4 | 8:17.50 | 2:50.50 | 37325 | 50124 5 | 11:08.25 | 2:25.00 | 50125 | 60999 6 | 13:33.25 | 2:53.50 | 61000 | 74024 7 | 16:27.00 | 2:51.25 | 74025 | 86874 8 | 19:18.25 | 2:48.25 | 86875 | 99499 9 | 22:06.50 | 2:27.25 | 99500 | 110549 10 | 24:34.00 | 2:18.00 | 110550 | 120899 11 | 26:52.00 | 2:50.25 | 120900 | 133674 12 | 29:42.25 | 2:37.42 | 133675 | 145491 13 | 32:19.67 | 2:31.50 | 145492 | 156866 14 | 34:51.42 | 2:37.25 | 156867 | 168666 15 | 37:28.67 | 3:13.00 | 168667 | 183141 16 | 40:41.67 | 2:18.00 | 183142 | 193491 17 | 42:59.67 | 2:45.50 | 193492 | 205916 18 | 45:45.42 | 2:49.25 | 205917 | 218616 19 | 48:34.67 | 3:04.00 | 218617 | 232416 20 | 51:38.67 | 2:10.00 | 232417 | 242166 21 | 53:48.67 | 2:30.50 | 242167 | 253466 22 | 56:19.42 | 3:04.00 | 253467 | 267266 23 | 59:23.42 | 2:07.25 | 267267 | 276816 24 | 61:30.67 | 2:38.00 | 276817 | 288666 25 | 64:08.67 | 2:57.18 | 288667 | 301959

Range status and errors

Selected range

Filename D:\Muzika\The Medallions Feat. Vernon Green - Speedin' (1996)\The Medallions Feat. Vernon Green - Speedin'.wav

Peak level 100.0 % Extraction speed 2.2 X Range quality 99.9 % Test CRC 4992C87D Copy CRC 4992C87D Copy OK

No errors occurred

AccurateRip summary

Track 1 not present in databaseTrack 2 not present in databaseTrack 3 not present in databaseTrack 4 not present in databaseTrack 5 not present in databaseTrack 6 not present in databaseTrack 7 not present in databaseTrack 8 not present in databaseTrack 9 not present in databaseTrack 10 not present in databaseTrack 11 not present in databaseTrack 12 not present in databaseTrack 13 not present in databaseTrack 14 not present in databaseTrack 15 not present in databaseTrack 16 not present in databaseTrack 17 not present in databaseTrack 18 not present in databaseTrack 19 not present in databaseTrack 20 not present in databaseTrack 21 not present in databaseTrack 22 not present in databaseTrack 23 not present in databaseTrack 24 not present in databaseTrack 25 not present in database

None of the tracks are present in the AccurateRip database

End of status report

==== Log checksum D757004D84FDEB32EF131464B76F70F7C6AEA5E85873B257B6A2C6E1034C895E ====


Трекер:  [ 11-Ноя-2012 17:55 ]

  

Скачать .torrent

Размер .torrent файла 13 KB


Размер: 329 MB
Хэш (hash) релиза: e40c4669c2d61194202db97002880f087c5fdc95

Еще никто не оставлял запись к записи скачать торрент The Medallions Feat. Vernon Green - Speedin 54-60 - 1996, FLAC . Будь первым!

!Обратная связь