Скачать через торрент музыку Ernie Maresca - Shout! Shout! бесплатно без регистрации torrent

Если у вас наблюдаются проблемы со скриншотами, переходом по ссылками, скачиванием торрентов - проблемы в блокировщике рекламы AdBlock. #хорошегоДня!


Статистика раздачи
Размер:  94 MB   |    Зарегистрирован:  4 года 9 месяцев   |    .torrent скачан:  7 раз   |   
Раздают:  1  
   
Загрузка...
 
Автор Сообщение

Galfimbul

avatar Galfimbul


Ernie Maresca / Shout! Shout! (Knock Yourself Out)

Жанр: Twist
Страна-производитель диска: England
Год издания: 1962
Издатель (лейбл): President Records Ltd.
Номер по каталогу: SELCD3
Страна: USA
Аудиокодек: FLAC (*.flac)
Тип рипа: image+.cue
Битрейт аудио: lossless
Продолжительность: 33:31
Источник (релизер): AUDELAS KINGDOM
Наличие сканов в содержимом раздачи: да
01. Shout! Shout! (Knock Yourself Out)
02. They Don't Know
03. Down on the Beach
04. Can't Forget About You
05. Down on the Beach
06. Crying Like A Baby Over You
07. Mary Jane
08. What Good Is Living
09. How I Cry
10. I'm Gonna Make It Somehow
11. Subway Blues
12. Can't Forget About You
13. Something to Shout About
14. It's Their World

Exact Audio Copy V1.0 beta 2 from 29. April 2011

EAC extraction logfile from 4. November 2012, 15:15

Ernie Maresca / Shout! Shout! (Knock Yourself Out)

Used drive : _NEC DVD_RW ND-3550A Adapter: 1 ID: 0

Read mode : SecureUtilize accurate stream : YesDefeat audio cache : YesMake use of C2 pointers : No

Read offset correction : 48Overread into Lead-In and Lead-Out : NoFill up missing offset samples with silence : YesDelete leading and trailing silent blocks : NoNull samples used in CRC calculations : YesUsed interface : Native Win32 interface for Win NT & 2000

Used output format : User Defined EncoderSelected bitrate : 768 kBit/sQuality : HighAdd ID3 tag : NoCommand line compressor : C:\Program Files\Exact Audio Copy\FLAC\FLAC.EXEAdditional command line options : -6 -V -T "ARTIST=%artist%" -T "TITLE=%title%" -T "ALBUM=%albumtitle%" -T "DATE=%year%" -T "TRACKNUMBER=%tracknr%" -T "GENRE=%genre%" -T "COMMENT=%comment%" -T "BAND=%albuminterpret%" -T "COMPOSER=%composer%" %haslyrics%--ta

TOC of the extracted CD

Track | Start | Length | Start sector | End sector --------------------------------------------------------- 1 | 0:00.00 | 2:10.07 | 0 | 9756 2 | 2:10.07 | 2:31.15 | 9757 | 21096 3 | 4:41.22 | 2:21.40 | 21097 | 31711 4 | 7:02.62 | 2:32.10 | 31712 | 43121 5 | 9:34.72 | 2:18.33 | 43122 | 53504 6 | 11:53.30 | 2:11.00 | 53505 | 63329 7 | 14:04.30 | 2:24.65 | 63330 | 74194 8 | 16:29.20 | 2:18.52 | 74195 | 84596 9 | 18:47.72 | 2:18.03 | 84597 | 94949 10 | 21:06.00 | 2:47.40 | 94950 | 107514 11 | 23:53.40 | 2:34.37 | 107515 | 119101 12 | 26:28.02 | 2:32.53 | 119102 | 130554 13 | 29:00.55 | 2:18.67 | 130555 | 140971 14 | 31:19.47 | 2:17.08 | 140972 | 151254

Range status and errors

Selected range

Filename D:\Muzika\Ernie Maresca - Shout! Shout! (Knock Yourself Out) (1962)\Ernie Maresca - Shout! Shout! (Knock Yourself Out).wav

Peak level 87.2 % Extraction speed 4.4 X Range quality 100.0 % Test CRC 263BB775 Copy CRC 263BB775 Copy OK

No errors occurred

AccurateRip summary

Track 1 accurately ripped (confidence 1) [E4196B88] (AR v1)Track 2 accurately ripped (confidence 1) [0382C452] (AR v1)Track 3 accurately ripped (confidence 1) [11EEA370] (AR v1)Track 4 accurately ripped (confidence 1) [BCFE6557] (AR v1)Track 5 accurately ripped (confidence 1) [873E1EA5] (AR v1)Track 6 accurately ripped (confidence 1) [4621E903] (AR v1)Track 7 accurately ripped (confidence 1) [9604068D] (AR v1)Track 8 accurately ripped (confidence 1) [6241AF78] (AR v1)Track 9 accurately ripped (confidence 1) [626F8A6B] (AR v1)Track 10 accurately ripped (confidence 1) [F19ECD81] (AR v1)Track 11 accurately ripped (confidence 1) [83E91769] (AR v1)Track 12 accurately ripped (confidence 1) [F2C45393] (AR v1)Track 13 accurately ripped (confidence 1) [FE98CFA7] (AR v1)Track 14 accurately ripped (confidence 1) [793C34BD] (AR v1)

All tracks accurately ripped

End of status report

==== Log checksum C118EACBE97CE8E2AD95EC53FDA17CA74875E866DE655F4C1A326A93A57E632B ====


Трекер:  [ 11-Ноя-2012 17:55 ]

  

Скачать .torrent

Размер .torrent файла 15 KB


Размер: 94 MB
Хэш (hash) релиза: 9ed6cacbbcb4f9a9afdf3ceb8c60472b9e7df32c

Еще никто не оставлял запись к записи скачать торрент Ernie Maresca - Shout! Shout! . Будь первым!

!Обратная связь