Скачать через торрент музыку Magna Carta - Putting It Back Together бесплатно без регистрации torrent

Если у вас наблюдаются проблемы со скриншотами, переходом по ссылками, скачиванием торрентов - проблемы в блокировщике рекламы AdBlock. #хорошегоДня!


Статистика раздачи
Размер:  553 MB   |    Зарегистрирован:  4 года 11 месяцев   |    .torrent скачан:  9 раз   |   
Раздают:  1  
   
Загрузка...
 
Автор Сообщение

Galfimbul

avatar Galfimbul


Magna Carta
Жанр: Folk-Rock
Страна-производитель диска: Japan
Год издания диска: 2012
Издатель (лейбл): R&R
Страна: UK
Аудиокодек: APE (*.ape)
Тип рипа: image+.cue
Битрейт аудио: lossless
Продолжительность: 1:57:36
Источник (релизер): sasos
Наличие сканов в содержимом раздачи: да
Magna Carta / Putting It Back Together (1975)

Страна-производитель диска: Japan
Год издания диска: 2012
Издатель (лейбл): Reality & Recoders
Номер по каталогу: R&R 211111-1
Аудиокодек: APE (*.ape)
Тип рипа: image+.cue
Битрейт аудио: lossless
Продолжительность: 38:49
Наличие сканов в содержимом раздачи: да
Треклист:
01. Putting It Back Together (3:17)
02. Took a Long Time (3:58)
03. Oh My Dear Rose (3:05)
04. Sun ain't gonna rise (5:45)
05. Lady take Me Down (4:17)
06. Wild Bird (6:04)
07. Princess (3:18)
08. Painted Eyes (4:19)
09. Tomorrow's a Long Time (4:47)
10. Books about Us (4:30)
Exact Audio Copy V0.99 prebeta 5 from 4. May 2009

Отчёт EAC об извлечении, выполненном 8. декабря 2011, 22:52

Magna Carta / Putting It Back Together

Дисковод: Optiarc DVD RW AD-7203S Adapter: 3 ID: 0

Режим чтения : ДостоверностьИспользование точного потока : ДаОтключение кэша аудио : ДаИспользование указателей C2 : Нет

Коррекция смещения при чтении : 48Способность читать области Lead-in и Lead-out : НетЗаполнение пропущенных сэмплов тишиной : ДаУдаление блоков с тишиной в начале и конце : НетПри вычислениях CRC использовались нулевые сэмплы : ДаИнтерфейс : Встроенный Win32-интерфейс для Win NT/2000

Выходной формат : Внутренние WAV-операцииФормат сэмплов : 44.100 Гц; 16 бит; стерео

TOC извлечённого CD

Трек | Старт | Длительность | Начальный сектор | Конечный сектор --------------------------------------------------------------------- 1 | 0:00.00 | 3:16.58 | 0 | 14757 2 | 3:16.58 | 3:57.42 | 14758 | 32574 3 | 7:14.25 | 3:05.36 | 32575 | 46485 4 | 10:19.61 | 5:44.70 | 46486 | 72355 5 | 16:04.56 | 4:17.06 | 72356 | 91636 6 | 20:21.62 | 6:03.52 | 91637 | 118913 7 | 26:25.39 | 3:18.33 | 118914 | 133796 8 | 29:43.72 | 4:19.19 | 133797 | 153240 9 | 34:03.16 | 4:46.40 | 153241 | 174730 10 | 38:49.56 | 4:30.05 | 174731 | 194985

Характеристики диапазона извлечения и сообщения об ошибках

Выбранный диапазон

Имя файла D:\Moole\Magna Carta2\Magna Carta - Putting It Back Together.wav

Пиковый уровень 93.8 % Качество диапазона 100.0 % CRC копии 9A4038DF Копирование... OK

Ошибок не произошло

Конец отчёта
Magna Carta / Prisoners On The Line (1978)

Страна-производитель диска: Japan
Год издания диска: 2012
Издатель (лейбл): Reality & Recoders
Номер по каталогу: R&R 171111-1
Аудиокодек: APE (*.ape)
Тип рипа: image+.cue
Битрейт аудио: lossless
Продолжительность: 40:39
Наличие сканов в содержимом раздачи: да
Треклист:
01. Overture (instrumental) (2:11)
02. Soliguay 1 (0:45)
03. Wild Horses (4:02)
04. Ain't No Turning Back (2:24)
05. Faces Of London (3:30)
06. When You Fall (3:36)
07. Soliguay 2 (1:10)
08. Forever (3:42)
09. In Tomorrow (3:37)
10. Song For John (4:45)
11. Rainy Day Companion (2:46)
12. Nothing So Bad (It Can't Get Better) (3:52)
13. Idle Wind (4:21)
14. C'est La Vie (That's Life) (2:40)
Exact Audio Copy V0.99 prebeta 5 from 4. May 2009

Отчёт EAC об извлечении, выполненном 8. декабря 2011, 21:23

Magna Carta / Prisoners On The Line

Дисковод: Optiarc DVD RW AD-7203S Adapter: 3 ID: 0

Режим чтения : ДостоверностьИспользование точного потока : ДаОтключение кэша аудио : ДаИспользование указателей C2 : Нет

Коррекция смещения при чтении : 48Способность читать области Lead-in и Lead-out : НетЗаполнение пропущенных сэмплов тишиной : ДаУдаление блоков с тишиной в начале и конце : НетПри вычислениях CRC использовались нулевые сэмплы : ДаИнтерфейс : Встроенный Win32-интерфейс для Win NT/2000

Выходной формат : Внутренние WAV-операцииФормат сэмплов : 44.100 Гц; 16 бит; стерео

TOC извлечённого CD

Трек | Старт | Длительность | Начальный сектор | Конечный сектор --------------------------------------------------------------------- 1 | 0:00.00 | 2:10.42 | 0 | 9791 2 | 2:10.42 | 0:45.21 | 9792 | 13187 3 | 2:55.63 | 4:02.06 | 13188 | 31343 4 | 6:57.69 | 2:24.31 | 31344 | 42174 5 | 9:22.25 | 3:29.60 | 42175 | 57909 6 | 12:52.10 | 3:36.07 | 57910 | 74116 7 | 16:28.17 | 1:09.74 | 74117 | 79365 8 | 17:38.16 | 3:41.38 | 79366 | 95978 9 | 21:19.54 | 3:36.54 | 95979 | 112232 10 | 24:56.33 | 4:44.61 | 112233 | 133593 11 | 29:41.19 | 2:45.65 | 133594 | 146033 12 | 32:27.09 | 3:52.03 | 146034 | 163436 13 | 36:19.12 | 4:20.61 | 163437 | 182997 14 | 40:39.73 | 2:39.30 | 182998 | 194952

Характеристики диапазона извлечения и сообщения об ошибках

Выбранный диапазон

Имя файла D:\Moole\Magna Carta\Magna Carta - Prisoners On The Line.wav

Пиковый уровень 99.0 % Качество диапазона 100.0 % CRC копии B02BE90F Копирование... OK

Ошибок не произошло

Конец отчёта


Трекер:  [ 11-Ноя-2012 17:55 ]

  

Скачать .torrent

Размер .torrent файла 14 KB


Размер: 553 MB
Хэш (hash) релиза: 74c6955f7b6843aa8b296e47d19b9df0e2b75b1f

Еще никто не оставлял запись к записи скачать торрент Magna Carta - Putting It Back Together . Будь первым!

!Обратная связь