Скачать через торрент музыку Gene Pitney - 25 All-Time Greatest Hits - 1999, FLAC бесплатно без регистрации torrent

Если у вас наблюдаются проблемы со скриншотами, переходом по ссылками, скачиванием торрентов - проблемы в блокировщике рекламы AdBlock. #хорошегоДня!


Статистика раздачи
Размер:  418 MB   |    Зарегистрирован:  4 года 11 месяцев   |    .torrent скачан:  8 раз   |   
Раздают:  1  
   
Загрузка...
 
Автор Сообщение

Galfimbul

avatar Galfimbul


Gene Pitney / 25 All-Time Greatest Hits

Жанр: Early Pop/Rock, Brill Building Pop, Teen Idols
Страна-производитель диска: USA
Год издания диска: 1999
Издатель (лейбл): Varèse Sarabande Records
Номер по каталогу: VSD-6002
Страна: USA
Аудио кодек: FLAC (*.flac)
Тип рипа: image+.cue
Битрейт аудио: lossless
Продолжительность: 1:08:03
Источник (релизер): Компакт диск из моей коллекции
Наличие сканов в содержимом раздачи: да

Треклист:
01. (I Wanna) Love My Life Away
02. Every Breath I Take
03. Town Without Pity
04. Hello Mary Lou
05. (The Man Who Shot) Liberty Valance
06. Only Love Can Break A Heart
07. If I Didn't Have A Dime (To Play The Jukebox)
08. Half Heaven - Half Heartache
09. Mecca
10. True Love Never Runs Smooth
11. Twenty Four Hours From Tulsa
12. That Girl Belongs To Yesterday
13. It Hurts To Be In Love
14. Lips Were Redder On You
15. I'm Gonna Be Strong
16. I Must Be Seeing Things
17. Last Chance To Turn Around
18. Looking Through The Eyes Of Love
19. Princess In Rags
20. Backstage (I'm Lonely)
21. Nobody Needs Your Love
22. Just One Smile
23. Something's Gotten Hold Of My Heart
24. She's A Heartbreaker
25. Yours Until Tomorrow
Exact Audio Copy V1.0 beta 1 from 15. November 2010

EAC extraction logfile from 29. January 2011, 23:34

Gene Pitney / 25 All-Time Greatest Hits

Used drive : Optiarc DVD RW AD-7241S Adapter: 5 ID: 0

Read mode : SecureUtilize accurate stream : YesDefeat audio cache : YesMake use of C2 pointers : No

Read offset correction : 48Overread into Lead-In and Lead-Out : NoFill up missing offset samples with silence : YesDelete leading and trailing silent blocks : NoNull samples used in CRC calculations : YesUsed interface : Native Win32 interface for Win NT & 2000

Used output format : User Defined EncoderSelected bitrate : 768 kBit/sQuality : HighAdd ID3 tag : NoCommand line compressor : D:\Program Files (x86)\Exact Audio Copy\FLAC\FLAC.EXEAdditional command line options : -6 -V -T "ARTIST=%a" -T "TITLE=%t" -T "ALBUM=%g" -T "DATE=%y" -T "TRACKNUMBER=%n" -T "GENRE=%m" -T "COMMENT=%e" %j--picture="%i"%j %s -o %d

TOC of the extracted CD

Track | Start | Length | Start sector | End sector --------------------------------------------------------- 1 | 0:00.00 | 1:54.70 | 0 | 8619 2 | 1:54.70 | 2:46.70 | 8620 | 21139 3 | 4:41.65 | 2:54.50 | 21140 | 34239 4 | 7:36.40 | 2:14.37 | 34240 | 44326 5 | 9:51.02 | 3:00.35 | 44327 | 57861 6 | 12:51.37 | 2:50.50 | 57862 | 70661 7 | 15:42.12 | 2:30.03 | 70662 | 81914 8 | 18:12.15 | 2:47.35 | 81915 | 94474 9 | 20:59.50 | 2:20.52 | 94475 | 105026 10 | 23:20.27 | 2:27.48 | 105027 | 116099 11 | 25:48.00 | 2:59.60 | 116100 | 129584 12 | 28:47.60 | 2:52.00 | 129585 | 142484 13 | 31:39.60 | 2:33.65 | 142485 | 154024 14 | 34:13.50 | 2:20.20 | 154025 | 164544 15 | 36:33.70 | 2:14.37 | 164545 | 174631 16 | 38:48.32 | 2:28.65 | 174632 | 185796 17 | 41:17.22 | 3:06.63 | 185797 | 199809 18 | 44:24.10 | 3:16.52 | 199810 | 214561 19 | 47:40.62 | 2:41.03 | 214562 | 226639 20 | 50:21.65 | 2:36.55 | 226640 | 238394 21 | 52:58.45 | 2:23.65 | 238395 | 249184 22 | 55:22.35 | 2:44.40 | 249185 | 261524 23 | 58:07.00 | 3:34.52 | 261525 | 277626 24 | 61:41.52 | 3:15.43 | 277627 | 292294 25 | 64:57.20 | 3:19.32 | 292295 | 307251

Range status and errors

Selected range

Filename F:\lossless\Gene Pitney\1999 - 25 All-Time Greatest Hits\Gene Pitney - 25 All-Time Greatest Hits.wav

Peak level 99.8 % Extraction speed 0.2 X Range quality 99.9 % Test CRC E6180776 Copy CRC E6180776 Copy OK

No errors occurred

AccurateRip summary

Track 1 cannot be verified as accurate (confidence 6) [2C2139BA], AccurateRip returned [54C6B845]Track 2 cannot be verified as accurate (confidence 6) [0D936069], AccurateRip returned [9B255EB2]Track 3 cannot be verified as accurate (confidence 5) [9306CF7D], AccurateRip returned [53A05EE8]Track 4 cannot be verified as accurate (confidence 5) [7D6C677A], AccurateRip returned [CCE5A024]Track 5 cannot be verified as accurate (confidence 5) [C6544BA7], AccurateRip returned [93C7F666]Track 6 cannot be verified as accurate (confidence 6) [A7AB1BCE], AccurateRip returned [81B9CAB8]Track 7 cannot be verified as accurate (confidence 6) [903B7BC9], AccurateRip returned [6068B84B]Track 8 cannot be verified as accurate (confidence 6) [2731E9EF], AccurateRip returned [11091BAD]Track 9 cannot be verified as accurate (confidence 6) [3897E0A5], AccurateRip returned [0D00EF9A]Track 10 cannot be verified as accurate (confidence 6) [7CD6ACAF], AccurateRip returned [C7E03C88]Track 11 cannot be verified as accurate (confidence 6) [724214D2], AccurateRip returned [2080AE68]Track 12 cannot be verified as accurate (confidence 6) [886F096A], AccurateRip returned [B6EAFF3E]Track 13 cannot be verified as accurate (confidence 6) [F4C22DD2], AccurateRip returned [8E494021]Track 14 cannot be verified as accurate (confidence 6) [3E41BB81], AccurateRip returned [662382C1]Track 15 cannot be verified as accurate (confidence 6) [F42F4F7B], AccurateRip returned [4910289C]Track 16 cannot be verified as accurate (confidence 6) [CD433667], AccurateRip returned [D2C2010A]Track 17 cannot be verified as accurate (confidence 6) [23694FE6], AccurateRip returned [15462C8B]Track 18 cannot be verified as accurate (confidence 6) [406245A1], AccurateRip returned [66546A49]Track 19 cannot be verified as accurate (confidence 5) [E4A5D3EB], AccurateRip returned [99580DF2]Track 20 cannot be verified as accurate (confidence 6) [CC85ECB9], AccurateRip returned [C36DCDC0]Track 21 cannot be verified as accurate (confidence 5) [3B57ABEF], AccurateRip returned [85CAF371]Track 22 cannot be verified as accurate (confidence 6) [87855E9E], AccurateRip returned [8EEF7CD1]Track 23 cannot be verified as accurate (confidence 5) [55FA4C2E], AccurateRip returned [E392816E]Track 24 cannot be verified as accurate (confidence 6) [302D2BA5], AccurateRip returned [B5EF21AA]Track 25 cannot be verified as accurate (confidence 5) [34D289C5], AccurateRip returned [E5CFCB3E]

No tracks could be verified as accurateYou may have a different pressing from the one(s) in the database

End of status report
All of Gene Pitney's biggies are here ("24 Hours to Tulsa," "Town Without Pity," "The Man Who Shot Liberty Valance," "It Hurts to Be in Love," "Only Love Can Break a Heart," the original "Hello, Mary Lou"), along with rarities like "Something's Gotten Hold of My Heart," and it all stands as a monument to Pitney's enormous talent, both as an emotional purveyor of song and a brilliant arranger, songwriter, and multi-instrumentalist.
Recording Date: 1961-1968.


Трекер:  [ 11-Ноя-2012 17:55 ]

  

Скачать .torrent

Размер .torrent файла 17 KB


Размер: 418 MB
Хэш (hash) релиза: 2d56b98a56fce2d15c8250bf7e98650e75b71a50

Еще никто не оставлял запись к записи скачать торрент Gene Pitney - 25 All-Time Greatest Hits - 1999, FLAC . Будь первым!

!Обратная связь