Скачать через торрент музыку David Lee Roth - Sensible Shoes бесплатно без регистрации torrent

Если у вас наблюдаются проблемы со скриншотами, переходом по ссылками, скачиванием торрентов - проблемы в блокировщике рекламы AdBlock. #хорошегоДня!


Статистика раздачи
Размер:  93 MB   |    Зарегистрирован:  5 лет   |    .torrent скачан:  6 раз   |   
Раздают:  1  
   
Загрузка...
 
Автор Сообщение

Galfimbul

avatar Galfimbul


David Lee Roth / Sensible Shoes [Maxi-Single]

Жанр: Hard Rock
Страна-производитель диска: UK
Год издания: 1991
Издатель (лейбл): Warner Bros. Records
Номер по каталогу: W0016CD
Аудиокодек: FLAC (*.flac)
Тип рипа: image+.cue
Битрейт аудио: lossless
Продолжительность: 00:12:42
Источник (релизер): Личный СД
Наличие сканов в содержимом раздачи: да
Треклист:
1. Sensible Shoes
2. California Girls
3. Medley: Just A Gigolo/Aint Got Nobody
Exact Audio Copy V1.0 beta 3 from 29. August 2011

Отчёт EAC об извлечении, выполненном 2. ноября 2012, 20:35

David Lee Roth / Sensible Shoes

Дисковод: PIONEER BD-RW BDR-207D Adapter: 2 ID: 1

Режим чтения : ДостоверностьИспользование точного потока : ДаОтключение кэша аудио : ДаИспользование указателей C2 : Нет

Коррекция смещения при чтении : 667Способность читать области Lead-in и Lead-out : НетЗаполнение пропущенных сэмплов тишиной : ДаУдаление блоков с тишиной в начале и конце : НетПри вычислениях CRC использовались нулевые сэмплы : ДаИнтерфейс : Встроенный Win32-интерфейс для Win NT/2000

Выходной формат : Пользовательский кодировщикВыбранный битрейт : 1024 kBit/sКачество : ВысокийДобавление ID3-тега : НетУтилита сжатия : C:\Program Files\Exact Audio Copy\Flac\flac.exeДополнительные параметры : -V -8 -T "Date=%year%" -T "Genre=%genre%" %source%

TOC извлечённого CD

Трек | Старт | Длительность | Начальный сектор | Конечный сектор --------------------------------------------------------------------- 1 | 0:00.00 | 5:11.27 | 0 | 23351 2 | 5:11.27 | 2:50.70 | 23352 | 36171 3 | 8:02.22 | 4:39.53 | 36172 | 57149

Характеристики диапазона извлечения и сообщения об ошибках

Выбранный диапазон

Имя файла M:\Раздачи Rodexx\David Lee Roth ‎– Sensible Shoes\David Lee Roth - Sensible Shoes.wav

Пиковый уровень 100.0 % Скорость извлечения 5.5 X Качество диапазона 100.0 % CRC теста 2A0CF2EE CRC копии 2A0CF2EE Копирование... OK

Ошибок не произошло

AccurateRip: сводка

Трек 1 : извлечено точно (доверие 1) [2FF21A1B] (AR v2)Трек 2 : извлечено точно (доверие 1) [5CB67389] (AR v2)Трек 3 : извлечено точно (доверие 1) [357F7F84] (AR v2)

Все треки извлечены точно

Конец отчёта

==== Контрольная сумма отчёта 0869BA4A55E3EDC42DA49182CA4F4F576F632879DEADD529D4A67BE85EA62C55 ====


Трекер:  [ 11-Ноя-2012 17:55 ]

  

Скачать .torrent

Размер .torrent файла 15 KB


Размер: 93 MB
Хэш (hash) релиза: 81550d851f6c1249188a03acd9bd4876403a0467

Еще никто не оставлял запись к записи скачать торрент David Lee Roth - Sensible Shoes . Будь первым!

!Обратная связь