Скачать через торрент музыку Mad Fred & The Maniacs - Mad Fred & The Maniacs - 2001, FLAC бесплатно без регистрации torrent

Если у вас наблюдаются проблемы со скриншотами, переходом по ссылками, скачиванием торрентов - проблемы в блокировщике рекламы AdBlock. #хорошегоДня!


Статистика раздачи
Размер:  402 MB   |    Зарегистрирован:  4 года 9 месяцев   |    .torrent скачан:  11 раз   |   
Раздают:  1  
   
Загрузка...
 
Автор Сообщение

Galfimbul

avatar Galfimbul


Mad Fred & The Maniacs / Mad Fred & The Maniacs

Жанр: Neo Rockabilly
Страна-производитель диска: Holland
Год издания: 2001
Издатель (лейбл): Rarity Records
Номер по каталогу: C192704
Страна: Holland
Аудиокодек: FLAC (*.flac)
Тип рипа: image+.cue
Битрейт аудио: lossless
Продолжительность: 59:00
Источник (релизер): AUDELAS KINGDOM
Наличие сканов в содержимом раздачи: да
01. Domino
02. Well I Knocked Bim Bam
03. I'm Out
04. Drinkin' Wine Spo-Dee-O-Dee
05. Cool Off Baby
06. Right Now
07. Rock Rock Rock
08. Train Of Love
09. Half Loved
10. Rock & Roll Ruby
11. Gonna Love My Baby
12. All The Time
13. Sleep Rock & Roll
14. Her Love Rubbed Off
15. I'm Glad My Baby's Gone Away
16. Boo Hoo
17. The Cat
18. How Come It
19. Rain
20. Raging-Sea
21. Rockin' Daddy
22. Let's Rock Tonight
23. Stutterin' Cindy
24. Bop-A-Lena

Exact Audio Copy V1.0 beta 2 from 29. April 2011

EAC extraction logfile from 1. November 2012, 16:57

Mad Fred & The Maniacs / Mad Fred & The Maniacs

Used drive : _NEC DVD_RW ND-3550A Adapter: 1 ID: 0

Read mode : SecureUtilize accurate stream : YesDefeat audio cache : YesMake use of C2 pointers : No

Read offset correction : 48Overread into Lead-In and Lead-Out : NoFill up missing offset samples with silence : YesDelete leading and trailing silent blocks : NoNull samples used in CRC calculations : YesUsed interface : Native Win32 interface for Win NT & 2000

Used output format : User Defined EncoderSelected bitrate : 768 kBit/sQuality : HighAdd ID3 tag : NoCommand line compressor : C:\Program Files\Exact Audio Copy\FLAC\FLAC.EXEAdditional command line options : -6 -V -T "ARTIST=%artist%" -T "TITLE=%title%" -T "ALBUM=%albumtitle%" -T "DATE=%year%" -T "TRACKNUMBER=%tracknr%" -T "GENRE=%genre%" -T "COMMENT=%comment%" -T "BAND=%albuminterpret%" -T "COMPOSER=%composer%" %haslyrics%--ta

TOC of the extracted CD

Track | Start | Length | Start sector | End sector --------------------------------------------------------- 1 | 0:00.00 | 2:03.25 | 0 | 9249 2 | 2:03.25 | 2:15.32 | 9250 | 19406 3 | 4:18.57 | 2:05.13 | 19407 | 28794 4 | 6:23.70 | 2:18.10 | 28795 | 39154 5 | 8:42.05 | 2:28.47 | 39155 | 50301 6 | 11:10.52 | 2:15.58 | 50302 | 60484 7 | 13:26.35 | 2:10.35 | 60485 | 70269 8 | 15:36.70 | 2:50.17 | 70270 | 83036 9 | 18:27.12 | 3:04.65 | 83037 | 96901 10 | 21:32.02 | 2:57.30 | 96902 | 110206 11 | 24:29.32 | 2:26.48 | 110207 | 121204 12 | 26:56.05 | 1:49.67 | 121205 | 129446 13 | 28:45.72 | 3:10.08 | 129447 | 143704 14 | 31:56.05 | 2:10.12 | 143705 | 153466 15 | 34:06.17 | 2:05.50 | 153467 | 162891 16 | 36:11.67 | 2:25.00 | 162892 | 173766 17 | 38:36.67 | 2:18.28 | 173767 | 184144 18 | 40:55.20 | 1:57.45 | 184145 | 192964 19 | 42:52.65 | 2:48.22 | 192965 | 205586 20 | 45:41.12 | 3:24.63 | 205587 | 220949 21 | 49:06.00 | 2:12.60 | 220950 | 230909 22 | 51:18.60 | 2:39.10 | 230910 | 242844 23 | 53:57.70 | 2:17.42 | 242845 | 253161 24 | 56:15.37 | 1:56.18 | 253162 | 261879

Range status and errors

Selected range

Filename D:\Muzika\Mad Fred & The Maniacs - Mad Fred & The Maniacs (2001)\Mad Fred & The Maniacs - Mad Fred & The Maniacs.wav

Peak level 98.4 % Extraction speed 2.0 X Range quality 99.9 % Test CRC 339B5F4F Copy CRC 339B5F4F Copy OK

No errors occurred

AccurateRip summary

Track 1 not present in databaseTrack 2 not present in databaseTrack 3 not present in databaseTrack 4 not present in databaseTrack 5 not present in databaseTrack 6 not present in databaseTrack 7 not present in databaseTrack 8 not present in databaseTrack 9 not present in databaseTrack 10 not present in databaseTrack 11 not present in databaseTrack 12 not present in databaseTrack 13 not present in databaseTrack 14 not present in databaseTrack 15 not present in databaseTrack 16 not present in databaseTrack 17 not present in databaseTrack 18 not present in databaseTrack 19 not present in databaseTrack 20 not present in databaseTrack 21 not present in databaseTrack 22 not present in databaseTrack 23 not present in databaseTrack 24 not present in database

None of the tracks are present in the AccurateRip database

End of status report

==== Log checksum 1B594BFBEABC4A38AE3DB0F5CAAFBA7F9D989E158025D49075AD991EA5DA9BCD ====


Трекер:  [ 11-Ноя-2012 17:55 ]

  

Скачать .torrent

Размер .torrent файла 16 KB


Размер: 402 MB
Хэш (hash) релиза: 426b985c7c9fd2bf54e57b536d1ceb25d9e5ae37

Еще никто не оставлял запись к записи скачать торрент Mad Fred & The Maniacs - Mad Fred & The Maniacs - 2001, FLAC . Будь первым!

!Обратная связь