Скачать через торрент музыку Wo Fat - The Gathering Dark бесплатно без регистрации torrent

Если у вас наблюдаются проблемы со скриншотами, переходом по ссылками, скачиванием торрентов - проблемы в блокировщике рекламы AdBlock. #хорошегоДня!


Статистика раздачи
Размер:  638 MB   |    Зарегистрирован:  4 года 11 месяцев   |    .torrent скачан:  30 раз   |   
Раздают:  1  
   
Загрузка...
 
Автор Сообщение

Galfimbul

avatar Galfimbul


Wo FatThe Gathering Dark, full version w/1 extra track
Жанр: Psychedelic rock
Страна: США
Год издания: 2006
Издательство: Red Menace Records
Аудиокодек: FLAC (*.flac)
Тип рипа: tracks
Битрейт аудио: lossless
Продолжительность: 1:27:36.103
Источник: download code for vinyl release

Треклист:
01. The Wolf (5:20)
02. Manchurian Syndrome (5:56)
03. Company Man (6:06)
04. The Gathering Dark (6:37)
05. Day of Judgement (6:05)
06. From Beyond (8:35)
07. Call of Zuvembie (8:55) - нет в CD-версии
08. Holy War (4:52)
09. El Brujo (7:57)
10. Risin' River (6:39)
11. Dreams of Milk and Honey (5:23)
12. They're Comin' For You, Barbara (5:53)
13. Runnin' The Voodoo Down (9:18)
AUDIOCHECKER v2.0 beta (build 457) - by Dester - <a href="mailto:opdester@freemail.hu" class="postLink">opdester@freemail.hu</a>~~~~~~~~~~~~~~~~~~~~~~~~~~~~~~~~~~-=== DO NOT EDIT THIS FILE! ===-

Path: ...\Wo Fat

01 -=- Wo Fat - The Gathering Dark - 01 The Wolf.flac -=- CDDA (100%)02 -=- Wo Fat - The Gathering Dark - 02 Manchurian Syndrome.flac -=- CDDA (100%)03 -=- Wo Fat - The Gathering Dark - 03 Company Man.flac -=- CDDA (100%)04 -=- Wo Fat - The Gathering Dark - 04 The Gathering Dark.flac -=- CDDA (100%)05 -=- Wo Fat - The Gathering Dark - 05 Day of Judgement.flac -=- CDDA (100%)06 -=- Wo Fat - The Gathering Dark - 06 From Beyond.flac -=- CDDA (100%)07 -=- Wo Fat - The Gathering Dark - 07 Call of Zuvembie.flac -=- CDDA (100%)08 -=- Wo Fat - The Gathering Dark - 08 Holy War.flac -=- CDDA (100%)09 -=- Wo Fat - The Gathering Dark - 09 El Brujo.flac -=- CDDA (100%)10 -=- Wo Fat - The Gathering Dark - 10 Risin' River.flac -=- CDDA (100%)11 -=- Wo Fat - The Gathering Dark - 11 Dreams of Milk and Honey.flac -=- CDDA (100%)12 -=- Wo Fat - The Gathering Dark - 12 They're Comin' For You, Barbara.flac -=- CDDA (100%)13 -=- Wo Fat - The Gathering Dark - 13 Runnin' The Voodoo Down.flac -=- CDDA (100%)

Summary 100,00% CDDA

161929588
GeneralComplete name : D:\Music\Wo Fat\2006 - The Gathering Dark (full version, digital release)\audiochecker.logFile size : 1.20 KiB

GeneralComplete name : D:\Music\Wo Fat\2006 - The Gathering Dark (full version, digital release)\cover.jpgFormat : JPEGFile size : 1.58 MiB

ImageFormat : JPEGWidth : 1 429 pixelsHeight : 1 434 pixelsColor space : YUVChroma subsampling : 4:4:4Bit depth : 8 bitsCompression mode : LossyStream size : 1.58 MiB (100%)

GeneralComplete name : D:\Music\Wo Fat\2006 - The Gathering Dark (full version, digital release)\foo_dr.txtFile size : 1.53 KiB

GeneralComplete name : D:\Music\Wo Fat\2006 - The Gathering Dark (full version, digital release)\spek 0.8.1\Wo Fat - The Gathering Dark - 01 The Wolf.flac.pngFormat : PNGFormat/Info : Portable Network GraphicFile size : 205 KiB

ImageFormat : PNGFormat/Info : Portable Network GraphicFormat_Compression : LZ77Width : 624 pixelsHeight : 389 pixelsBit depth : 24 bitsCompression mode : LosslessStream size : 205 KiB (100%)

GeneralComplete name : D:\Music\Wo Fat\2006 - The Gathering Dark (full version, digital release)\spek 0.8.1\Wo Fat - The Gathering Dark - 02 Manchurian Syndrome.flac.pngFormat : PNGFormat/Info : Portable Network GraphicFile size : 206 KiB

ImageFormat : PNGFormat/Info : Portable Network GraphicFormat_Compression : LZ77Width : 624 pixelsHeight : 389 pixelsBit depth : 24 bitsCompression mode : LosslessStream size : 206 KiB (100%)

GeneralComplete name : D:\Music\Wo Fat\2006 - The Gathering Dark (full version, digital release)\spek 0.8.1\Wo Fat - The Gathering Dark - 03 Company Man.flac.pngFormat : PNGFormat/Info : Portable Network GraphicFile size : 206 KiB

ImageFormat : PNGFormat/Info : Portable Network GraphicFormat_Compression : LZ77Width : 624 pixelsHeight : 389 pixelsBit depth : 24 bitsCompression mode : LosslessStream size : 206 KiB (100%)

GeneralComplete name : D:\Music\Wo Fat\2006 - The Gathering Dark (full version, digital release)\spek 0.8.1\Wo Fat - The Gathering Dark - 04 The Gathering Dark.flac.pngFormat : PNGFormat/Info : Portable Network GraphicFile size : 197 KiB

ImageFormat : PNGFormat/Info : Portable Network GraphicFormat_Compression : LZ77Width : 624 pixelsHeight : 389 pixelsBit depth : 24 bitsCompression mode : LosslessStream size : 197 KiB (100%)

GeneralComplete name : D:\Music\Wo Fat\2006 - The Gathering Dark (full version, digital release)\spek 0.8.1\Wo Fat - The Gathering Dark - 05 Day of Judgement.flac.pngFormat : PNGFormat/Info : Portable Network GraphicFile size : 204 KiB

ImageFormat : PNGFormat/Info : Portable Network GraphicFormat_Compression : LZ77Width : 624 pixelsHeight : 389 pixelsBit depth : 24 bitsCompression mode : LosslessStream size : 204 KiB (100%)

GeneralComplete name : D:\Music\Wo Fat\2006 - The Gathering Dark (full version, digital release)\spek 0.8.1\Wo Fat - The Gathering Dark - 06 From Beyond.flac.pngFormat : PNGFormat/Info : Portable Network GraphicFile size : 208 KiB

ImageFormat : PNGFormat/Info : Portable Network GraphicFormat_Compression : LZ77Width : 624 pixelsHeight : 389 pixelsBit depth : 24 bitsCompression mode : LosslessStream size : 208 KiB (100%)

GeneralComplete name : D:\Music\Wo Fat\2006 - The Gathering Dark (full version, digital release)\spek 0.8.1\Wo Fat - The Gathering Dark - 07 Call of Zuvembie.flac.pngFormat : PNGFormat/Info : Portable Network GraphicFile size : 208 KiB

ImageFormat : PNGFormat/Info : Portable Network GraphicFormat_Compression : LZ77Width : 624 pixelsHeight : 389 pixelsBit depth : 24 bitsCompression mode : LosslessStream size : 208 KiB (100%)

GeneralComplete name : D:\Music\Wo Fat\2006 - The Gathering Dark (full version, digital release)\spek 0.8.1\Wo Fat - The Gathering Dark - 08 Holy War.flac.pngFormat : PNGFormat/Info : Portable Network GraphicFile size : 191 KiB

ImageFormat : PNGFormat/Info : Portable Network GraphicFormat_Compression : LZ77Width : 624 pixelsHeight : 389 pixelsBit depth : 24 bitsCompression mode : LosslessStream size : 191 KiB (100%)

GeneralComplete name : D:\Music\Wo Fat\2006 - The Gathering Dark (full version, digital release)\spek 0.8.1\Wo Fat - The Gathering Dark - 09 El Brujo.flac.pngFormat : PNGFormat/Info : Portable Network GraphicFile size : 196 KiB

ImageFormat : PNGFormat/Info : Portable Network GraphicFormat_Compression : LZ77Width : 624 pixelsHeight : 389 pixelsBit depth : 24 bitsCompression mode : LosslessStream size : 196 KiB (100%)

GeneralComplete name : D:\Music\Wo Fat\2006 - The Gathering Dark (full version, digital release)\spek 0.8.1\Wo Fat - The Gathering Dark - 10 Risin' River.flac.pngFormat : PNGFormat/Info : Portable Network GraphicFile size : 204 KiB

ImageFormat : PNGFormat/Info : Portable Network GraphicFormat_Compression : LZ77Width : 624 pixelsHeight : 389 pixelsBit depth : 24 bitsCompression mode : LosslessStream size : 204 KiB (100%)

GeneralComplete name : D:\Music\Wo Fat\2006 - The Gathering Dark (full version, digital release)\spek 0.8.1\Wo Fat - The Gathering Dark - 11 Dreams of Milk and Honey.flac.pngFormat : PNGFormat/Info : Portable Network GraphicFile size : 208 KiB

ImageFormat : PNGFormat/Info : Portable Network GraphicFormat_Compression : LZ77Width : 624 pixelsHeight : 389 pixelsBit depth : 24 bitsCompression mode : LosslessStream size : 208 KiB (100%)

GeneralComplete name : D:\Music\Wo Fat\2006 - The Gathering Dark (full version, digital release)\spek 0.8.1\Wo Fat - The Gathering Dark - 12 They're Comin' For You, Barbara.flac.pngFormat : PNGFormat/Info : Portable Network GraphicFile size : 198 KiB

ImageFormat : PNGFormat/Info : Portable Network GraphicFormat_Compression : LZ77Width : 624 pixelsHeight : 389 pixelsBit depth : 24 bitsCompression mode : LosslessStream size : 198 KiB (100%)

GeneralComplete name : D:\Music\Wo Fat\2006 - The Gathering Dark (full version, digital release)\spek 0.8.1\Wo Fat - The Gathering Dark - 13 Runnin' The Voodoo Down.flac.pngFormat : PNGFormat/Info : Portable Network GraphicFile size : 200 KiB

ImageFormat : PNGFormat/Info : Portable Network GraphicFormat_Compression : LZ77Width : 624 pixelsHeight : 389 pixelsBit depth : 24 bitsCompression mode : LosslessStream size : 200 KiB (100%)

GeneralComplete name : D:\Music\Wo Fat\2006 - The Gathering Dark (full version, digital release)\Wo Fat - The Gathering Dark - 01 The Wolf.flacFormat : FLACFormat/Info : Free Lossless Audio CodecFile size : 38.7 MiBDuration : 5mn 20sOverall bit rate mode : VariableOverall bit rate : 1 015 KbpsAlbum : The Gathering DarkTrack name : The WolfTrack name/Position : 1Performer : Wo FatRecorded date : 2006ISRC : USZZ50600500Cover : YesCover type : Cover (front)Cover MIME : image/jpeg

AudioFormat : FLACFormat/Info : Free Lossless Audio CodecDuration : 5mn 20sBit rate mode : VariableBit rate : 1 007 KbpsChannel(s) : 2 channelsSampling rate : 44.1 KHzBit depth : 16 bitsStream size : 38.4 MiB (99%)Writing library : libFLAC 1.2.1 (UTC 2007-09-17)

GeneralComplete name : D:\Music\Wo Fat\2006 - The Gathering Dark (full version, digital release)\Wo Fat - The Gathering Dark - 02 Manchurian Syndrome.flacFormat : FLACFormat/Info : Free Lossless Audio CodecFile size : 43.3 MiBDuration : 5mn 55sOverall bit rate mode : VariableOverall bit rate : 1 021 KbpsAlbum : The Gathering DarkTrack name : Manchurian SyndromeTrack name/Position : 2Performer : Wo FatRecorded date : 2006ISRC : USZZ50600501Cover : YesCover type : Cover (front)Cover MIME : image/jpeg

AudioFormat : FLACFormat/Info : Free Lossless Audio CodecDuration : 5mn 55sBit rate mode : VariableBit rate : 1 014 KbpsChannel(s) : 2 channelsSampling rate : 44.1 KHzBit depth : 16 bitsStream size : 43.0 MiB (99%)Writing library : libFLAC 1.2.1 (UTC 2007-09-17)

GeneralComplete name : D:\Music\Wo Fat\2006 - The Gathering Dark (full version, digital release)\Wo Fat - The Gathering Dark - 03 Company Man.flacFormat : FLACFormat/Info : Free Lossless Audio CodecFile size : 44.4 MiBDuration : 6mn 5sOverall bit rate mode : VariableOverall bit rate : 1 018 KbpsAlbum : The Gathering DarkTrack name : Company ManTrack name/Position : 3Performer : Wo FatRecorded date : 2006ISRC : USZZ50600502Cover : YesCover type : Cover (front)Cover MIME : image/jpeg

AudioFormat : FLACFormat/Info : Free Lossless Audio CodecDuration : 6mn 5sBit rate mode : VariableBit rate : 1 011 KbpsChannel(s) : 2 channelsSampling rate : 44.1 KHzBit depth : 16 bitsStream size : 44.1 MiB (99%)Writing library : libFLAC 1.2.1 (UTC 2007-09-17)

GeneralComplete name : D:\Music\Wo Fat\2006 - The Gathering Dark (full version, digital release)\Wo Fat - The Gathering Dark - 04 The Gathering Dark.flacFormat : FLACFormat/Info : Free Lossless Audio CodecFile size : 48.0 MiBDuration : 6mn 36sOverall bit rate mode : VariableOverall bit rate : 1 016 KbpsAlbum : The Gathering DarkTrack name : The Gathering DarkTrack name/Position : 4Performer : Wo FatRecorded date : 2006ISRC : USZZ50600503Cover : YesCover type : Cover (front)Cover MIME : image/jpeg

AudioFormat : FLACFormat/Info : Free Lossless Audio CodecDuration : 6mn 36sBit rate mode : VariableBit rate : 1 009 KbpsChannel(s) : 2 channelsSampling rate : 44.1 KHzBit depth : 16 bitsStream size : 47.7 MiB (99%)Writing library : libFLAC 1.2.1 (UTC 2007-09-17)

GeneralComplete name : D:\Music\Wo Fat\2006 - The Gathering Dark (full version, digital release)\Wo Fat - The Gathering Dark - 05 Day of Judgement.flacFormat : FLACFormat/Info : Free Lossless Audio CodecFile size : 43.6 MiBDuration : 6mn 4sOverall bit rate mode : VariableOverall bit rate : 1 003 KbpsAlbum : The Gathering DarkTrack name : Day of JudgementTrack name/Position : 5Performer : Wo FatRecorded date : 2006ISRC : USZZ50600504Cover : YesCover type : Cover (front)Cover MIME : image/jpeg

AudioFormat : FLACFormat/Info : Free Lossless Audio CodecDuration : 6mn 4sBit rate mode : VariableBit rate : 996 KbpsChannel(s) : 2 channelsSampling rate : 44.1 KHzBit depth : 16 bitsStream size : 43.3 MiB (99%)Writing library : libFLAC 1.2.1 (UTC 2007-09-17)

GeneralComplete name : D:\Music\Wo Fat\2006 - The Gathering Dark (full version, digital release)\Wo Fat - The Gathering Dark - 06 From Beyond.flacFormat : FLACFormat/Info : Free Lossless Audio CodecFile size : 61.9 MiBDuration : 8mn 35sOverall bit rate mode : VariableOverall bit rate : 1 007 KbpsAlbum : The Gathering DarkTrack name : From BeyondTrack name/Position : 6Performer : Wo FatRecorded date : 2006ISRC : USZZ50600505Cover : YesCover type : Cover (front)Cover MIME : image/jpeg

AudioFormat : FLACFormat/Info : Free Lossless Audio CodecDuration : 8mn 35sBit rate mode : VariableBit rate : 1 002 KbpsChannel(s) : 2 channelsSampling rate : 44.1 KHzBit depth : 16 bitsStream size : 61.6 MiB (100%)Writing library : libFLAC 1.2.1 (UTC 2007-09-17)

GeneralComplete name : D:\Music\Wo Fat\2006 - The Gathering Dark (full version, digital release)\Wo Fat - The Gathering Dark - 07 Call of Zuvembie.flacFormat : FLACFormat/Info : Free Lossless Audio CodecFile size : 59.0 MiBDuration : 8mn 55sOverall bit rate mode : VariableOverall bit rate : 925 KbpsAlbum : The Gathering DarkTrack name : Call of ZuvembieTrack name/Position : 7Performer : Wo FatRecorded date : 2006ISRC : USZZ51101075Cover : YesCover type : Cover (front)Cover MIME : image/jpeg

AudioFormat : FLACFormat/Info : Free Lossless Audio CodecDuration : 8mn 55sBit rate mode : VariableBit rate : 920 KbpsChannel(s) : 2 channelsSampling rate : 44.1 KHzBit depth : 16 bitsStream size : 58.7 MiB (99%)Writing library : libFLAC 1.2.1 (UTC 2007-09-17)

GeneralComplete name : D:\Music\Wo Fat\2006 - The Gathering Dark (full version, digital release)\Wo Fat - The Gathering Dark - 08 Holy War.flacFormat : FLACFormat/Info : Free Lossless Audio CodecFile size : 24.1 MiBDuration : 4mn 51sOverall bit rate mode : VariableOverall bit rate : 692 KbpsAlbum : The Gathering DarkTrack name : Holy WarTrack name/Position : 8Performer : Wo FatRecorded date : 2006ISRC : USZZ50600506Cover : YesCover type : Cover (front)Cover MIME : image/jpeg

AudioFormat : FLACFormat/Info : Free Lossless Audio CodecDuration : 4mn 51sBit rate mode : VariableBit rate : 684 KbpsChannel(s) : 2 channelsSampling rate : 44.1 KHzBit depth : 16 bitsStream size : 23.8 MiB (99%)Writing library : libFLAC 1.2.1 (UTC 2007-09-17)

GeneralComplete name : D:\Music\Wo Fat\2006 - The Gathering Dark (full version, digital release)\Wo Fat - The Gathering Dark - 09 El Brujo.flacFormat : FLACFormat/Info : Free Lossless Audio CodecFile size : 57.1 MiBDuration : 7mn 57sOverall bit rate mode : VariableOverall bit rate : 1 004 KbpsAlbum : The Gathering DarkTrack name : El BrujoTrack name/Position : 9Performer : Wo FatRecorded date : 2006ISRC : USZZ50600507Cover : YesCover type : Cover (front)Cover MIME : image/jpeg

AudioFormat : FLACFormat/Info : Free Lossless Audio CodecDuration : 7mn 57sBit rate mode : VariableBit rate : 998 KbpsChannel(s) : 2 channelsSampling rate : 44.1 KHzBit depth : 16 bitsStream size : 56.8 MiB (99%)Writing library : libFLAC 1.2.1 (UTC 2007-09-17)

GeneralComplete name : D:\Music\Wo Fat\2006 - The Gathering Dark (full version, digital release)\Wo Fat - The Gathering Dark - 10 Risin' River.flacFormat : FLACFormat/Info : Free Lossless Audio CodecFile size : 47.9 MiBDuration : 6mn 39sOverall bit rate mode : VariableOverall bit rate : 1 005 KbpsAlbum : The Gathering DarkTrack name : Risin' RiverTrack name/Position : 10Performer : Wo FatRecorded date : 2006ISRC : USZZ50600508Cover : YesCover type : Cover (front)Cover MIME : image/jpeg

AudioFormat : FLACFormat/Info : Free Lossless Audio CodecDuration : 6mn 39sBit rate mode : VariableBit rate : 999 KbpsChannel(s) : 2 channelsSampling rate : 44.1 KHzBit depth : 16 bitsStream size : 47.6 MiB (99%)Writing library : libFLAC 1.2.1 (UTC 2007-09-17)

GeneralComplete name : D:\Music\Wo Fat\2006 - The Gathering Dark (full version, digital release)\Wo Fat - The Gathering Dark - 11 Dreams of Milk and Honey.flacFormat : FLACFormat/Info : Free Lossless Audio CodecFile size : 38.7 MiBDuration : 5mn 23sOverall bit rate mode : VariableOverall bit rate : 1 003 KbpsAlbum : The Gathering DarkTrack name : Dreams of Milk and HoneyTrack name/Position : 11Performer : Wo FatRecorded date : 2006ISRC : USZZ50600509Cover : YesCover type : Cover (front)Cover MIME : image/jpeg

AudioFormat : FLACFormat/Info : Free Lossless Audio CodecDuration : 5mn 23sBit rate mode : VariableBit rate : 995 KbpsChannel(s) : 2 channelsSampling rate : 44.1 KHzBit depth : 16 bitsStream size : 38.4 MiB (99%)Writing library : libFLAC 1.2.1 (UTC 2007-09-17)

GeneralComplete name : D:\Music\Wo Fat\2006 - The Gathering Dark (full version, digital release)\Wo Fat - The Gathering Dark - 12 They're Comin' For You, Barbara.flacFormat : FLACFormat/Info : Free Lossless Audio CodecFile size : 42.6 MiBDuration : 5mn 52sOverall bit rate mode : VariableOverall bit rate : 1 014 KbpsAlbum : The Gathering DarkTrack name : They're Comin' For You, BarbaraTrack name/Position : 12Performer : Wo FatRecorded date : 2006ISRC : USZZ50600510Cover : YesCover type : Cover (front)Cover MIME : image/jpeg

AudioFormat : FLACFormat/Info : Free Lossless Audio CodecDuration : 5mn 52sBit rate mode : VariableBit rate : 1 007 KbpsChannel(s) : 2 channelsSampling rate : 44.1 KHzBit depth : 16 bitsStream size : 42.3 MiB (99%)Writing library : libFLAC 1.2.1 (UTC 2007-09-17)

GeneralComplete name : D:\Music\Wo Fat\2006 - The Gathering Dark (full version, digital release)\Wo Fat - The Gathering Dark - 13 Runnin' The Voodoo Down.flacFormat : FLACFormat/Info : Free Lossless Audio CodecFile size : 70.6 MiBDuration : 9mn 17sOverall bit rate mode : VariableOverall bit rate : 1 062 KbpsAlbum : The Gathering DarkTrack name : Runnin' The Voodoo DownTrack name/Position : 13Performer : Wo FatRecorded date : 2006ISRC : USZZ50600511Cover : YesCover type : Cover (front)Cover MIME : image/jpeg

AudioFormat : FLACFormat/Info : Free Lossless Audio CodecDuration : 9mn 17sBit rate mode : VariableBit rate : 1 058 KbpsChannel(s) : 2 channelsSampling rate : 44.1 KHzBit depth : 16 bitsStream size : 70.3 MiB (100%)Writing library : libFLAC 1.2.1 (UTC 2007-09-17)

GeneralComplete name : D:\Music\Wo Fat\2006 - The Gathering Dark (full version, digital release)\Wo Fat - The Gathering Dark - Gathering Dark back.jpgFormat : JPEGFile size : 2.68 MiB

ImageFormat : JPEGWidth : 1 950 pixelsHeight : 1 584 pixelsColor space : YUVChroma subsampling : 4:4:4Bit depth : 8 bitsCompression mode : LossyStream size : 2.68 MiB (100%)

GeneralComplete name : D:\Music\Wo Fat\2006 - The Gathering Dark (full version, digital release)\Wo Fat - The Gathering Dark - Gathering Dark inside.jpgFormat : JPEGFile size : 11.6 MiB

ImageFormat : JPEGWidth : 4 568 pixelsHeight : 2 196 pixelsColor space : YUVChroma subsampling : 4:4:4Bit depth : 8 bitsCompression mode : LossyStream size : 11.6 MiB (100%)


Трекер:  [ 11-Ноя-2012 14:59 ]

  

Скачать .torrent

Размер .torrent файла 15 KB


Размер: 638 MB
Хэш (hash) релиза: deadc3c0105c513b352d4aa0f6b0e06321dec8b4

Еще никто не оставлял запись к записи скачать торрент Wo Fat - The Gathering Dark . Будь первым!

!Обратная связь