Скачать через торрент музыку Ten Years After 1972-Rock & Roll Music to the World бесплатно без регистрации torrent

Если у вас наблюдаются проблемы со скриншотами, переходом по ссылками, скачиванием торрентов - проблемы в блокировщике рекламы AdBlock. #хорошегоДня!


Статистика раздачи
Размер:  329 MB   |    Зарегистрирован:  5 лет   |    .torrent скачан:  17 раз   |   
Раздают:  1  
   
Загрузка...
 
Автор Сообщение

Galfimbul

avatar Galfimbul


Ten Years After
1972-Rock & Roll Music to the World
[2012, Audio Fidelity AFZ 142, 24 Karat Gold CD]

Жанр: Classic Rock / Blues Rock
Страна-производитель диска: USA
Год издания диска: 1972 / 2012
Издатель (лейбл): Audio Fidelity
Номер по каталогу: AFZ 142
Аудио кодек: FLAC (*.flac)
Тип рипа: image+.cue
Битрейт аудио: lossless
Продолжительность: 45:33
Источник (релизер): taurus66 (NetLab)
Наличие сканов в содержимом раздачи:
[img]http://musicworthbuying.files.Хочу в бан, я тупой спамер/2011/09/logo1.png[/img]
01. You Give Me Loving (6:33)
02. Convention Prevention (4:24)
03. Turned Off T.V. Blues (5:12)
04. Standing At The Station (7:13)
05. You Can't Win Them All (4:06)
06. Religion (5:45)
07. Choo Choo Moma (4:01)
08. Tomorrow I'll Be Out Of Town (4:30)
09. Rock & Roll Music To The World (3:50)

Mastered by Kevin Gray
Exact Audio Copy V1.0 beta 3 from 29. August 2011

EAC extraction logfile from 1. November 2012, 15:34

Ten Years After / Rock & Roll Music to the World [Audio Fidelity 24 Karat Gold CD AFZ 142]

Used drive : Optiarc DVD RW AD-7200S Adapter: 5 ID: 1

Read mode : SecureUtilize accurate stream : YesDefeat audio cache : YesMake use of C2 pointers : No

Read offset correction : 48Overread into Lead-In and Lead-Out : NoFill up missing offset samples with silence : YesDelete leading and trailing silent blocks : NoNull samples used in CRC calculations : YesUsed interface : Installed external ASPI interface

Used output format : User Defined EncoderSelected bitrate : 1024 kBit/sQuality : HighAdd ID3 tag : NoCommand line compressor : D:\Program Files (x86)\Exact Audio Copy\wavpack.exeAdditional command line options : -hlmx2 %source% %dest%

TOC of the extracted CD

Track | Start | Length | Start sector | End sector --------------------------------------------------------- 1 | 0:00.00 | 6:33.29 | 0 | 29503 2 | 6:33.29 | 4:23.57 | 29504 | 49285 3 | 10:57.11 | 5:11.39 | 49286 | 72649 4 | 16:08.50 | 7:13.16 | 72650 | 105140 5 | 23:21.66 | 4:06.29 | 105141 | 123619 6 | 27:28.20 | 5:45.03 | 123620 | 149497 7 | 33:13.23 | 4:01.06 | 149498 | 167578 8 | 37:14.29 | 4:29.41 | 167579 | 187794 9 | 41:43.70 | 3:49.44 | 187795 | 205013

Range status and errors

Selected range

Filename D:\eac\Ten Years After\Ten Years After - Rock & Roll Music to the World [Audio Fidelity 24 Karat Gold CD AFZ 142].wav

Peak level 99.9 % Extraction speed 3.7 X Range quality 100.0 % Test CRC FBAE8D7C Copy CRC FBAE8D7C Copy OK

No errors occurred

AccurateRip summary

Track 1 accurately ripped (confidence 1) [99BEB408] (AR v2)Track 2 accurately ripped (confidence 1) [BD68C830] (AR v2)Track 3 accurately ripped (confidence 1) [BDC4FD71] (AR v2)Track 4 accurately ripped (confidence 1) [70096F62] (AR v2)Track 5 accurately ripped (confidence 1) [137753DE] (AR v2)Track 6 accurately ripped (confidence 1) [E296BCE0] (AR v2)Track 7 accurately ripped (confidence 1) [7D0A8FD0] (AR v2)Track 8 accurately ripped (confidence 1) [9ACB6C7D] (AR v2)Track 9 accurately ripped (confidence 1) [19A54C0B] (AR v2)

All tracks accurately ripped

End of status report

---- CUETools DB Plugin V2.1.3

[CTDB TOCID: Q.JjsG3Ld20Cj7zoAJY5yv8W3G0-] found, Submit result: Q.JjsG3Ld20Cj7zoAJY5yv8W3G0- has been confirmed[eaf8f4f7] (2/2) Accurately ripped

==== Log checksum 9C0EC12CAAB624B26083202446CF737B40107D86B80BB6F088443BCE71FBB2F2 ====
REM GENRE "Rock / Blues Rock"REM DATE 1972REM DISCID 7C0AAD09REM COMMENT "ExactAudioCopy v1.0b3"PERFORMER "Ten Years After"TITLE "Rock & Roll Music to the World [Audio Fidelity 24 Karat Gold CD AFZ 142]"FILE "Ten Years After - Rock & Roll Music to the World [AFZ 142].flac" WAVE TRACK 01 AUDIO TITLE "You Give Me Loving" PERFORMER "Ten Years After" ISRC GBAYE7200058 INDEX 01 00:00:00 TRACK 02 AUDIO TITLE "Convention Prevention" PERFORMER "Ten Years After" ISRC GBAYE7200059 INDEX 01 06:33:29 TRACK 03 AUDIO TITLE "Turned Off T.V. Blues" PERFORMER "Ten Years After" ISRC GBAYE7200060 INDEX 01 10:57:11 TRACK 04 AUDIO TITLE "Standing At The Station" PERFORMER "Ten Years After" ISRC GBAYE7200061 INDEX 01 16:08:50 TRACK 05 AUDIO TITLE "You Can't Win Them All" PERFORMER "Ten Years After" ISRC GBAYE7200062 INDEX 01 23:21:66 TRACK 06 AUDIO TITLE "Religion" PERFORMER "Ten Years After" ISRC GBAYE7200063 INDEX 01 27:28:20 TRACK 07 AUDIO TITLE "Choo Choo Moma" PERFORMER "Ten Years After" ISRC GBAYE7200064 INDEX 01 33:13:23 TRACK 08 AUDIO TITLE "Tomorrow I'll Be Out Of Town" PERFORMER "Ten Years After" ISRC GBAYE7200065 INDEX 01 37:14:29 TRACK 09 AUDIO TITLE "Rock & Roll Music To The World" PERFORMER "Ten Years After" ISRC GBAYE7200066 INDEX 01 41:43:70
[CUETools log; Date: 02.11.2012 10:34:18; Version: 2.1.4][CTDB TOCID: Q.JjsG3Ld20Cj7zoAJY5yv8W3G0-] found.Track | CTDB Status 1 | (3/3) Accurately ripped 2 | (3/3) Accurately ripped 3 | (3/3) Accurately ripped 4 | (3/3) Accurately ripped 5 | (3/3) Accurately ripped 6 | (3/3) Accurately ripped 7 | (3/3) Accurately ripped 8 | (3/3) Accurately ripped 9 | (3/3) Accurately ripped[AccurateRip ID: 0010a227-00786d51-7c0aad09] found.Track [ CRC | V2 ] Status 01 [e38416b2|99beb408] (0+1/1) Accurately ripped 02 [16965fa3|bd68c830] (0+1/1) Accurately ripped 03 [e3aa5420|bdc4fd71] (0+1/1) Accurately ripped 04 [68b1d838|70096f62] (0+1/1) Accurately ripped 05 [b86be31b|137753de] (0+1/1) Accurately ripped 06 [304da143|e296bce0] (0+1/1) Accurately ripped 07 [4463a515|7d0a8fd0] (0+1/1) Accurately ripped 08 [e198bcee|9acb6c7d] (0+1/1) Accurately ripped 09 [04d50814|19a54c0b] (0+1/1) Accurately ripped

Track Peak [ CRC32 ] [W/O NULL] [ LOG ] -- 99,9 [FBAE8D7C] [6284CECC] CRC32 01 96,6 [EA0E9269] [30E137E1] 02 95,8 [E7A576CA] [2846BC5B] 03 98,8 [72E66F62] [B574FD8C] 04 99,9 [95FAD0D1] [DFF0C84B] 05 94,0 [9BEB1C55] [4F218CDF] 06 89,9 [85E8DC34] [358C57F2] 07 99,1 [8E691526] [2E6308B2] 08 96,4 [441ACF69] [6DC56B1E] 09 83,9 [45BE4EB0] [E0D6135E]
foobar2000 1.1.1 / Dynamic Range Meter 1.1.1log date: 2012-11-02 10:31:28

--------------------------------------------------------------------------------Analyzed: Ten Years After / Rock & Roll Music to the World [Audio Fidelity 24 Karat Gold CD AFZ 142]--------------------------------------------------------------------------------

DR Peak RMS Duration Track--------------------------------------------------------------------------------DR11 -0.30 dB -14.19 dB 6:33 01-You Give Me LovingDR12 -0.37 dB -13.87 dB 4:24 02-Convention PreventionDR10 -0.10 dB -13.17 dB 5:12 03-Turned Off T.V. BluesDR11 0.00 dB -13.58 dB 7:13 04-Standing At The StationDR11 -0.53 dB -14.03 dB 4:06 05-You Can't Win Them AllDR10 -0.92 dB -13.74 dB 5:45 06-ReligionDR11 -0.07 dB -12.93 dB 4:01 07-Choo Choo MomaDR10 -0.31 dB -12.45 dB 4:30 08-Tomorrow I'll Be Out Of TownDR10 -1.52 dB -13.79 dB 3:50 09-Rock & Roll Music To The World--------------------------------------------------------------------------------

Number of tracks: 9Official DR value: DR11

Samplerate: 44100 HzChannels: 2Bits per sample: 16Bitrate: 866 kbpsCodec: FLAC

«Alvin Lee and Ten Years After are in top form on this rock & roll extravaganza»

There would only be one more studio recording from Ten Years After following the 1972 release of Rock & Roll Music to the World. This album was a favorite in the early 70's and the catchy rockin' title track gained quite a lot of radio play. While the content of the songs is inspired by the blues, the music is rock & roll, cleanly played with power and finesse. The band sounds tight and relaxed. Chick Churchill plays some interesting combination of synthesizer and organ lines, Ric Lee's pounding drums and Leo Lyons' bass work drive the powerful backbeat.

Nevertheless, it is Alvin Lee who wrote, sang, and in most cases defines this recording by his lead guitar sensibilities, adeptly in tow, cutting loose with exceptional runs on nearly every track. This far less frenetic outing by Alvin Lee contains his tastiest playing. Lee is a master technician--even at his fastest, each note is round and full, with a beginning, middle, and end, and each note is distinct--no slurring.

This album flows from the opening number, "You Give Me Loving," a six and 1/2 minute musical mass of metal and sound effects, through the roaring "Choo Choo Mama," to the closing title track. The "dream" of the psychedelic '60's is given a final nod in "Rock and Roll Music
To the World" as Lee sings, "Give peace a chance, get up and dance." This classic album was created by a serious group of talented individuals in their prime...lean, mean and free of filler...there is simply nothing in here that misses a beat.
• Alvin Lee - guitar, vocals
• Leo Lyons - bass
• Ric Lee - drums
• Chick Churchill - organ
Огромное спасибо оригинальному релизеру!


Трекер:  [ 11-Ноя-2012 14:59 ]

  

Скачать .torrent

Размер .torrent файла 14 KB


Размер: 329 MB
Хэш (hash) релиза: 9c27dac1bf3b21881f92df700857ee3e16e12366

Торренты, похожие на Ten Years After 1972-Rock & Roll Music to the World скачать торрент

Форум Название Автор Размер S L Добавлен
Rосk | Mеtаl | Аltеrnаtivе, Рunk, Indереndеnt (losslеss) ·· (Classic Rock / Rock) Ten Years After - Rock & Roll Music To The World - 1972, FLAC (image+.cue) lossless Galfimbul 309530212295 MB 0 0 1297876048

20:07

16-Фев-11

Еще никто не оставлял запись к записи скачать торрент Ten Years After 1972-Rock & Roll Music to the World . Будь первым!

!Обратная связь