Скачать через торрент музыку I And Thou бесплатно без регистрации torrent

Если у вас наблюдаются проблемы со скриншотами, переходом по ссылками, скачиванием торрентов - проблемы в блокировщике рекламы AdBlock. #хорошегоДня!


Статистика раздачи
Размер:  364 MB   |    Зарегистрирован:  4 года 9 месяцев   |    .torrent скачан:  24 раза   |   
Раздают:  1  
   
Загрузка...
 
Автор Сообщение

Galfimbul

avatar Galfimbul


I And Thou [Gatefold], [Paper/Cardboard Sleeve] / Speak

Жанр: Neo Progressive
Страна-производитель диска: USA
Год издания: 2012
Издатель (лейбл): n\a
Страна: USA
Аудиокодек: FLAC (*.flac)
Тип рипа: image+.cue
Битрейт аудио: lossless
Продолжительность: 1:00:52.17
Источник (релизер): личный диск
Наличие сканов в содержимом раздачи: да
Треклист:
01. Speak [0:12:22.43]
02. And I Awaken [0:11:34.42]
03. Hide and Seek [0:16:33.38]
04. The Face Behind the Eyes [0:13:38.33]
05. Go or Go Ahead (featuring Steve Hogarth) [0:06:43.11]
Exact Audio Copy V1.0 beta 3 from 29. August 2011

Отчёт EAC об извлечении, выполненном 1. ноября 2012, 20:51

I And Thou / Speak

Дисковод: TSSTcorpCDDVDW TS-L633J Adapter: 0 ID: 1

Режим чтения : ДостоверностьИспользование точного потока : ДаОтключение кэша аудио : ДаИспользование указателей C2 : Нет

Коррекция смещения при чтении : 6Способность читать области Lead-in и Lead-out : НетЗаполнение пропущенных сэмплов тишиной : ДаУдаление блоков с тишиной в начале и конце : НетПри вычислениях CRC использовались нулевые сэмплы : ДаИнтерфейс : Установленный внешний ASPI-интерфейс

Выходной формат : Пользовательский кодировщикВыбранный битрейт : 128 kBit/sКачество : ВысокийДобавление ID3-тега : НетУтилита сжатия : C:\Program Files\Exact Audio Copy\FLAC\FLAC.EXEДополнительные параметры : -6 -V -T "ARTIST=%artist%" -T "TITLE=%title%" -T "ALBUM=%albumtitle%" -T "DATE=%year%" -T "TRACKNUMBER=%tracknr%" -T "GENRE=%genre%" -T "COMMENT=%comment%" -T "BAND=%albuminterpret%" -T "ALBUMARTIST=%albuminterpret%" -T "COMPOSER=%composer%" %haslyrics%--tag-from-file=LYRICS="%lyricsfile%"%haslyrics% -T "DISCNUMBER=%cdnumber%" -T "TOTALDISCS=%totalcds%" -T "TOTALTRACKS=%numtracks%" %hascover%--picture="%coverfile%"%hascover% %source% -o %dest%

TOC извлечённого CD

Трек | Старт | Длительность | Начальный сектор | Конечный сектор --------------------------------------------------------------------- 1 | 0:00.00 | 12:22.43 | 0 | 55692 2 | 12:22.43 | 11:34.42 | 55693 | 107784 3 | 23:57.10 | 16:33.38 | 107785 | 182297 4 | 40:30.48 | 13:38.33 | 182298 | 243680 5 | 54:09.06 | 6:43.11 | 243681 | 273916

Характеристики диапазона извлечения и сообщения об ошибках

Выбранный диапазон

Имя файла D:\РИПЫ\I & THOU\I And Thou - Speak.wav

Пиковый уровень 100.0 % Скорость извлечения 3.0 X Качество диапазона 100.0 % CRC теста 3B1995E1 CRC копии 3B1995E1 Копирование... OK

Ошибок не произошло

AccurateRip: сводка

Трек 1 отсутствует в базе данныхТрек 2 отсутствует в базе данныхТрек 3 отсутствует в базе данныхТрек 4 отсутствует в базе данныхТрек 5 отсутствует в базе данных

Ни одного трека нет в базе AccurateRip

Конец отчёта

---- CUETools DB Plugin V2.1.3

[CTDB TOCID: _b3Eyqip7bc01GIri..Zpb28EHg-] found, Submit result: _b3Eyqip7bc01GIri..Zpb28EHg- has been confirmed[683663db] (3/3) Accurately ripped

==== Контрольная сумма отчёта A35EDB3697317587990C47A55D90ACA1264B18470B72E9F51DC30024853B4FC1 ====
and Thou biography
US based Project I AND THOU is the creative vehicle of one Jason Hart, a long time and accomplished musician and composer whose paths have taken him to many different musical styles and countries alike, participating in a number of more or less well known projects along the way. He released his first solo back in 2005, but rather than continuing down that path he chose to set up a project this time around.
With the help of a number of musical friends and drawing upon the musical legacy of 70's progressive rock an album's worth of material was slowly assembled, a task that started out with it's first minor steps back in 2005 and finally saw the light of day in the summer of 2012, the album first made available to the public at the final NEARfest festival. Time will then have to tell if Speak is the first or if it will be the first and last chapter of this particular chapter of Jason Hart's music career.
“Speak” is a heady brew of progressive rock, art rock, pop, classical and theater music enriched with loads of symphonic & orchestral passages. The whole work is so ingeniously made and performed that it emits a refined quality able to almost entirely purify one’s mind. Sounds somehow complex? Wait till you sample the sundry undertones of intricacy which become more than conspicuous after having heard the tracks for the second time. For all practical purposes, you could possibly listen to just about every silvery sound imaginable embracing well-turned lyrics and stunning performances. Killer song arrangements reminding you of Genesis, Yes, Pink Floyd, Marillion, IZZ, and Renaissance among others should urge listeners to re-evaluate the definition of good music by comparing this work with others which allegedly have claimed a respectful place but not a well-deserved one. Trying to deal with each song separately is, for me, a waste of time in prog rock albums generally, so I’ll just mention that the fifth song “Go Or Go Ahead” is a cover of a Rufus Wainwright tune and Hogarth gives his magnificent own touch in delivering it.

Truthfully, I haven’t listened to such a mellifluous album, which mixes progressive rock, art rock, pop, classical and theater music, since the year dot. 2012 has surely been a prog year with so many and in majority good releases of the genre. So, to sum up, whether you just have a yen for listening to atmospheric music or you are a true paramour of these genres one thing is for sure: you will certainly relish every single moment of the album.

(originally written for www.grande-rock.com - Album of the Month)
- Jason Hart / keyboards, piano, vocals
With:
- John Gargano / bass
- Matt Johnson / drums
- Jack Petruzzelli / guitars
- Paul Bremner / guitars
- Laura Meade / backing vocals
- Max Moston / violin
- Keren Ann / vocals
- Steve Hogarth / vocals


Трекер:  [ 11-Ноя-2012 14:59 ]

  

Скачать .torrent

Размер .torrent файла 15 KB


Размер: 364 MB
Хэш (hash) релиза: 776c1d36fe41bf5e6d7e1902628fd888e851933d

Еще никто не оставлял запись к записи скачать торрент I And Thou . Будь первым!

!Обратная связь