Скачать через торрент музыку Mike Oldfield - Ommadawn - 1984, FLAC бесплатно без регистрации torrent

Если у вас наблюдаются проблемы со скриншотами, переходом по ссылками, скачиванием торрентов - проблемы в блокировщике рекламы AdBlock. #хорошегоДня!


Статистика раздачи
Размер:  188 MB   |    Зарегистрирован:  4 года 11 месяцев   |    .torrent скачан:  14 раз   |   
Раздают:  1  
   
Загрузка...
 
Автор Сообщение

Galfimbul

avatar Galfimbul


Mike Oldfield / Ommadawn

Жанр: art rock
Страна-производитель диска: Made in Holland for European Market
Год издания: 1984
Издатель (лейбл): Virgin
Номер по каталогу: CDV 2043 0777 7 86695 2 4
Страна: England
Аудиокодек: FLAC (*.flac)
Тип рипа: image+.cue
Битрейт аудио: lossless
Продолжительность: 0:36:41.65
Источник (релизер): рип с собственного диска
Наличие сканов в содержимом раздачи: нет
Треклист:
PART ONE (19.14)
PART TWO (17.17)
Exact Audio Copy V1.0 beta 3 from 29. August 2011

Отчёт EAC об извлечении, выполненном 1. ноября 2012, 22:23

Mike Oldfield / Ommadawn

Дисковод: TSSTcorpCDDVDW SH-222AL Adapter: 3 ID: 0

Режим чтения : ДостоверностьИспользование точного потока : ДаОтключение кэша аудио : ДаИспользование указателей C2 : Нет

Коррекция смещения при чтении : 6Способность читать области Lead-in и Lead-out : НетЗаполнение пропущенных сэмплов тишиной : ДаУдаление блоков с тишиной в начале и конце : НетПри вычислениях CRC использовались нулевые сэмплы : ДаИнтерфейс : Встроенный Win32-интерфейс для Win NT/2000

Выходной формат : Внутренние WAV-операцииФормат сэмплов : 44.100 Гц; 16 бит; стерео

TOC извлечённого CD

Трек | Старт | Длительность | Начальный сектор | Конечный сектор --------------------------------------------------------------------- 1 | 0:00.33 | 19:23.32 | 33 | 87289 2 | 19:23.65 | 13:54.48 | 87290 | 149887 3 | 33:18.38 | 3:23.60 | 149888 | 165172

Характеристики диапазона извлечения и сообщения об ошибках

Выбранный диапазон

Имя файла E:\Music\Mike Oldfield - Ommadawn\Mike Oldfield - Ommadawn.wav

Пиковый уровень 100.0 % Скорость извлечения 2.7 X Качество диапазона 100.0 % CRC теста 80668C16 CRC копии 80668C16 Копирование... OK

Ошибок не произошло

AccurateRip: сводка

Трек 1 : извлечено точно (доверие 3) [B2ED6D12] (AR v2)Трек 2 : извлечено точно (доверие 4) [790DCB4E] (AR v2)Трек 3 : извлечено точно (доверие 4) [D22C6410] (AR v2)

Все треки извлечены точно

Конец отчёта
REM GENRE InstrumentalREM DATE 1975REM DISCID 11089A03REM COMMENT "ExactAudioCopy v1.0b3"PERFORMER "Mike Oldfield"TITLE "Ommadawn"FILE "Mike Oldfield - Ommadawn.flac" WAVE TRACK 01 AUDIO TITLE "Ommadawn Part One" PERFORMER "Mike Oldfield" INDEX 00 00:00:00 INDEX 01 00:00:33 TRACK 02 AUDIO TITLE "Ommadawn Part Two" PERFORMER "Mike Oldfield" INDEX 00 19:17:48 INDEX 01 19:23:65 TRACK 03 AUDIO TITLE "On Horseback" PERFORMER "Mike Oldfield" INDEX 00 33:14:43 INDEX 01 33:18:38
Доп. информация: для коллекции rutracker-a
First published in 1975 Virgin Records Ltd.
This Re-issue P.1984 Virgin Records Ltd.
BIEM - STEMRA
Made in Holland for European Market (Netherland, Germany, Switzerland, France & Italy).
Composed By, Instrumentation By, Producer – Mike Oldfield


Трекер:  [ 11-Ноя-2012 14:58 ]

  

Скачать .torrent

Размер .torrent файла 15 KB


Размер: 188 MB
Хэш (hash) релиза: 80e6bd3cca0e8fcfee31ce48c3798ff3df8562cc

Еще никто не оставлял запись к записи скачать торрент Mike Oldfield - Ommadawn - 1984, FLAC . Будь первым!

!Обратная связь