Скачать через торрент музыку Paul Gilbert - Vibrato - 2012, FLAC бесплатно без регистрации torrent

Если у вас наблюдаются проблемы со скриншотами, переходом по ссылками, скачиванием торрентов - проблемы в блокировщике рекламы AdBlock. #хорошегоДня!


Статистика раздачи
Размер:  468 MB   |    Зарегистрирован:  5 лет   |    .torrent скачан:  21 раз   |   
Раздают:  1  
   
Загрузка...
 
Автор Сообщение

Galfimbul

avatar Galfimbul


Paul Gilbert / Vibrato

Жанр: Jazz Rock, Instrumental Rock, Fusion
Страна-производитель диска: Россия
Год издания: 2012
Издатель (лейбл): пиратка
Страна: USA
Аудиокодек: FLAC (*.flac)
Тип рипа: image+.cue
Битрейт аудио: lossless
Продолжительность: 1:07:36
Источник (релизер): свой рип
Наличие сканов в содержимом раздачи: нет
Треклист:
01. Enemies (In Jail)
02. Rain And Thunder And Lightning
03. Vibrato
04. Put It On The Char
05. Bivalve Blues
06. Blue Rondo a la Turk
07. Atmosphere On The Moon
08. The Pronghorn
09. Roundabout
10. I Want To Be Loved
11. Go Down
Exact Audio Copy V1.0 beta 1 from 15. November 2010

EAC extraction logfile from 1. November 2012, 22:06

Paul Gilbert / Vibrato

Used drive : HL-DT-STDVDRAM GSA-T50N Adapter: 0 ID: 1

Read mode : SecureUtilize accurate stream : YesDefeat audio cache : YesMake use of C2 pointers : No

Read offset correction : 667Overread into Lead-In and Lead-Out : NoFill up missing offset samples with silence : YesDelete leading and trailing silent blocks : NoNull samples used in CRC calculations : YesUsed interface : Native Win32 interface for Win NT & 2000

Used output format : User Defined EncoderSelected bitrate : 128 kBit/sQuality : HighAdd ID3 tag : NoCommand line compressor : C:\Program Files\Exact Audio Copy\Flac\flac.exeAdditional command line options : -8 -V %s

TOC of the extracted CD

Track | Start | Length | Start sector | End sector --------------------------------------------------------- 1 | 0:00.00 | 6:00.73 | 0 | 27072 2 | 6:00.73 | 5:03.06 | 27073 | 49803 3 | 11:04.04 | 3:29.32 | 49804 | 65510 4 | 14:33.36 | 5:33.66 | 65511 | 90551 5 | 20:07.27 | 7:43.64 | 90552 | 125340 6 | 27:51.16 | 5:38.13 | 125341 | 150703 7 | 33:29.29 | 5:14.09 | 150704 | 174262 8 | 38:43.38 | 5:36.65 | 174263 | 199527 9 | 44:20.28 | 9:08.29 | 199528 | 240656 10 | 53:28.57 | 6:10.47 | 240657 | 268453 11 | 59:39.29 | 7:57.02 | 268454 | 304230

Range status and errors

Selected range

Filename C:\Documents and Settings\User Y530\Рабочий стол\Paul Gilbert - Vibrato (2012).wav

Peak level 99.5 % Extraction speed 0.2 X Range quality 99.9 % Test CRC 5FD53195 Copy CRC 5FD53195 Copy OK

No errors occurred

AccurateRip summary

Track 1 not present in databaseTrack 2 not present in databaseTrack 3 not present in databaseTrack 4 not present in databaseTrack 5 not present in databaseTrack 6 not present in databaseTrack 7 not present in databaseTrack 8 not present in databaseTrack 9 not present in databaseTrack 10 not present in databaseTrack 11 not present in database

None of the tracks are present in the AccurateRip database

End of status report


Трекер:  [ 11-Ноя-2012 14:58 ]

  

Скачать .torrent

Размер .torrent файла 19 KB


Размер: 468 MB
Хэш (hash) релиза: 00298e91f8a913227c4cfefd49c638d5d229acfb

Еще никто не оставлял запись к записи скачать торрент Paul Gilbert - Vibrato - 2012, FLAC . Будь первым!

!Обратная связь