Скачать через торрент музыку Poor Genetic Material - Summerland - 2001, FLAC бесплатно без регистрации torrent

Если у вас наблюдаются проблемы со скриншотами, переходом по ссылками, скачиванием торрентов - проблемы в блокировщике рекламы AdBlock. #хорошегоДня!


Статистика раздачи
Размер:  260 MB   |    Зарегистрирован:  4 года 9 месяцев   |    .torrent скачан:  25 раз   |   
Раздают:  1  
   
Загрузка...
 
Автор Сообщение

Galfimbul

avatar Galfimbul


Poor Genetic Material / Summerland
Жанр: Progressive Rock
Год издания: 2001
Издатель (лейбл): QuiXote
Номер по каталогу: QuiXote CD 13
Страна: Germany
Аудиокодек: FLAC (*.flac)
Тип рипа: image+.cue
Битрейт аудио: lossless
Продолжительность: 43:23
Источник (релизер): Thunder
Наличие сканов в содержимом раздачи: да
Треклист:
01 - Shooting Psycho [04:17]
02 - Wouldism [07:30]
03 - Living Desert [05:49]
04 - Just Another Me [04:20]
05 - A Secret Song [04:59]
06 - Late [04:40]
07 - Summerland [11:45]
Exact Audio Copy V1.0 beta 1 from 15. November 2010

EAC extraction logfile from 12. October 2012, 19:05

Poor Genetic Material / Summerland

Used drive : HL-DT-STDVDRAM GH20NS10 Adapter: 0 ID: 1

Read mode : SecureUtilize accurate stream : YesDefeat audio cache : YesMake use of C2 pointers : No

Read offset correction : 667Overread into Lead-In and Lead-Out : NoFill up missing offset samples with silence : YesDelete leading and trailing silent blocks : NoNull samples used in CRC calculations : YesUsed interface : Installed external ASPI interface

Used output format : User Defined EncoderSelected bitrate : 768 kBit/sQuality : HighAdd ID3 tag : NoCommand line compressor : C:\Program Files\Exact Audio Copy\FLAC\FLAC.EXEAdditional command line options : -6 -V -T "ARTIST=%a" -T "TITLE=%t" -T "ALBUM=%g" -T "DATE=%y" -T "TRACKNUMBER=%n" -T "GENRE=%m" -T "COMMENT=%e" %j--picture="%i"%j %s -o %d

TOC of the extracted CD

Track | Start | Length | Start sector | End sector --------------------------------------------------------- 1 | 0:00.00 | 4:17.69 | 0 | 19343 2 | 4:17.69 | 7:30.28 | 19344 | 53121 3 | 11:48.22 | 5:49.20 | 53122 | 79316 4 | 17:37.42 | 4:20.34 | 79317 | 98850 5 | 21:58.01 | 4:59.11 | 98851 | 121286 6 | 26:57.12 | 4:40.48 | 121287 | 142334 7 | 31:37.60 | 11:45.63 | 142335 | 195272

Range status and errors

Selected range

Filename H:\ 123\Poor Genetic Material - Summerland.wav

Peak level 94.3 % Extraction speed 2.0 X Range quality 100.0 % Copy CRC 727F7F47 Copy OK

No errors occurred

AccurateRip summary

Track 1 not present in databaseTrack 2 not present in databaseTrack 3 not present in databaseTrack 4 not present in databaseTrack 5 not present in databaseTrack 6 not present in databaseTrack 7 not present in database

None of the tracks are present in the AccurateRip database

End of status report
REM GENRE "Progressive Rock"REM DATE 2001REM DISCID 5B0A2B07REM COMMENT "ExactAudioCopy v1.0b1"PERFORMER "Poor Genetic Material"TITLE "Summerland"FILE "Poor Genetic Material - Summerland.flac" WAVE TRACK 01 AUDIO TITLE "Shooting Psycho" PERFORMER "Poor Genetic Material" INDEX 01 00:00:00 TRACK 02 AUDIO TITLE "Wouldism" PERFORMER "Poor Genetic Material" INDEX 01 04:17:69 TRACK 03 AUDIO TITLE "Living Desert" PERFORMER "Poor Genetic Material" INDEX 01 11:48:22 TRACK 04 AUDIO TITLE "Just Another Me" PERFORMER "Poor Genetic Material" INDEX 01 17:37:42 TRACK 05 AUDIO TITLE "A Secret Song" PERFORMER "Poor Genetic Material" INDEX 01 21:58:01 TRACK 06 AUDIO TITLE "Late" PERFORMER "Poor Genetic Material" INDEX 01 26:57:12 TRACK 07 AUDIO TITLE "Summerland" PERFORMER "Poor Genetic Material" INDEX 01 31:37:60
Philip Griffiths / vocals
Stefan Glomb / guitars, bass
Philipp Jaehne / keyboards
Ludwig Benedek / drums


Трекер:  [ 11-Ноя-2012 14:58 ]

  

Скачать .torrent

Размер .torrent файла 11 KB


Размер: 260 MB
Хэш (hash) релиза: a30e767a28389a3f83e431595b26b36c12b8500f

Еще никто не оставлял запись к записи скачать торрент Poor Genetic Material - Summerland - 2001, FLAC . Будь первым!

!Обратная связь