Скачать через торрент музыку Light Coorporation - Aliens From Planet Earth - 2012, FLAC бесплатно без регистрации torrent

Если у вас наблюдаются проблемы со скриншотами, переходом по ссылками, скачиванием торрентов - проблемы в блокировщике рекламы AdBlock. #хорошегоДня!


Статистика раздачи
Размер:  386 MB   |    Зарегистрирован:  5 лет   |    .torrent скачан:  6 раз   |   
Раздают:  1  
   
Загрузка...
 
Автор Сообщение

Galfimbul

avatar Galfimbul


LIGHT COORPORATION — Aliens From Planet Earth (2012)

Жанр: Progressive Rock/Avant-prog
Страна исполнителя: Poland
Год выпуска диска: 2012
Производитель дисков: UK (RéR Megacorp.)
Номер по каталогу: LC02RéR
Аудио кодек: FLAC
Тип рипа: image+.cue
Битрейт аудио: lossless
Продолжительность: 01:02:57
Наличие сканов в содержимом раздачи: да
Источник: моя коллекция CD

Треклист:
01. The Song Of The Merbau Tree [03:09.747]
02. Surrounding Us The Pulse Of Depths [06:46.707]
03. The Rainbow Hunter [03:08.907]
04. World Of Cobweb Fabric [05:43.773]
05. Third Level Of Dream [09:49.453]
06. Man Inside The Great Fish [11:54.640]
07. Time (Everything Is Chasing After The Wind) [10:21.067]
08. Aquarium Of The Universe [08:01.040]
09. hidden track [04:02.493]

Line-up:
Mariusz Sobański — guitars, baritone cello
[b]Krzysztof Waśkiewicz
— bass, analog taperecorder
Paweł Rogoża — tenor saxophone, Kaossilator Pro
Robert Bielak — violin
Miłosz Krauz — drums, percussion[/b]
REM GENRE "Progressive Rock/Avant-prog"
REM DATE 2012
REM DISCID 770EC109
REM COMMENT "ExactAudioCopy v0.99pb4"
PERFORMER "LIGHT COORPORATION"
TITLE "Aliens From Planet Earth"
FILE "LIGHT COORPORATION - 2012 - Aliens From Planet Earth.wav" WAVE
  TRACK 01 AUDIO
    TITLE "The Song Of The Merbau Tree"
    PERFORMER "LIGHT COORPORATION"
    INDEX 01 00:00:00
  TRACK 02 AUDIO
    TITLE "Surrounding Us The Pulse Of Depths"
    PERFORMER "LIGHT COORPORATION"
    INDEX 01 03:09:56
  TRACK 03 AUDIO
    TITLE "The Rainbow Hunter"
    PERFORMER "LIGHT COORPORATION"
    INDEX 01 09:56:34
  TRACK 04 AUDIO
    TITLE "The World Of Cobweb Fabric"
    PERFORMER "LIGHT COORPORATION"
    INDEX 01 13:05:27
  TRACK 05 AUDIO
    TITLE "Third Level Of Dream"
    PERFORMER "LIGHT COORPORATION"
    INDEX 01 18:49:10
  TRACK 06 AUDIO
    TITLE "Man Inside The Great Fish"
    PERFORMER "LIGHT COORPORATION"
    INDEX 01 28:38:44
  TRACK 07 AUDIO
    TITLE "Time (Everything Is Chasing After The Wind)"
    PERFORMER "LIGHT COORPORATION"
    INDEX 01 40:33:17
  TRACK 08 AUDIO
    TITLE "Aquarium Of The Universe"
    PERFORMER "LIGHT COORPORATION"
    INDEX 01 50:54:22
  TRACK 09 AUDIO
    TITLE "[hidden track]"
    PERFORMER "LIGHT COORPORATION"
    INDEX 01 58:55:25
Exact Audio Copy V0.99 prebeta 4 from 23. January 2008

Отчёт EAC об извлечении, выполненном 31. октября 2012, 18:35

LIGHT COORPORATION / Aliens From Planet Earth

Дисковод: TSSTcorpCD/DVDW SH-S183A   Adapter: 4  ID: 1

Режим чтения                 : Достоверность
Использование точного потока : Да
Отключение кэша аудио        : Да
Использование указателей C2  : Нет

Коррекция смещения при чтении                     : 6
Способность читать области Lead-in и Lead-out     : Нет
Заполнение пропущенных сэмплов тишиной            : Да
Удаление блоков с тишиной в начале и конце        : Нет
При вычислениях CRC использовались нулевые сэмплы : Да
Интерфейс                                         : Встроенный Win32-интерфейс для Win NT/2000

Выходной формат : Внутренние WAV-операции
Формат сэмплов  : 44.100 Гц; 16 бит; стерео

TOC извлечённого CD

     Трек |   Старт  | Длительность | Начальный сектор | Конечный сектор
    ---------------------------------------------------------------------
       1  |  0:00.00 |    3:09.56   |           0      |      14230
       2  |  3:09.56 |    6:46.53   |       14231      |      44733
       3  |  9:56.34 |    3:08.68   |       44734      |      58901
       4  | 13:05.27 |    5:43.58   |       58902      |      84684
       5  | 18:49.10 |    9:49.34   |       84685      |     128893
       6  | 28:38.44 |   11:54.48   |      128894      |     182491
       7  | 40:33.17 |   10:21.05   |      182492      |     229071
       8  | 50:54.22 |    8:01.03   |      229072      |     265149
       9  | 58:55.25 |    4:02.37   |      265150      |     283336

Характеристики диапазона извлечения и сообщения об ошибках

Выбранный диапазон

     Имя файла D:\TEMP\LIGHT COORPORATION - 2012 - Aliens From Planet Earth.wav

     Пиковый уровень 100.0 %
     Качество диапазона 100.0 %
     CRC теста BDF6A6FE
     CRC копии BDF6A6FE
     Копирование... OK

Ошибок не произошло

AccurateRip: сводка

Трек  1  нет в базе данных
Трек  2  нет в базе данных
Трек  3  нет в базе данных
Трек  4  нет в базе данных
Трек  5  нет в базе данных
Трек  6  нет в базе данных
Трек  7  нет в базе данных
Трек  8  нет в базе данных
Трек  9  нет в базе данных

Ни одного трека нет в базе AccurateRip

Конец отчёта


Трекер:  [ 11-Ноя-2012 14:58 ]

  

Скачать .torrent

Размер .torrent файла 17 KB


Размер: 386 MB
Хэш (hash) релиза: 95ebdf3b2c42233de083875686eb0824f3d70c07

Еще никто не оставлял запись к записи скачать торрент Light Coorporation - Aliens From Planet Earth - 2012, FLAC . Будь первым!

!Обратная связь