Скачать через торрент музыку Freiheit - Fantasy - 1988, APE бесплатно без регистрации torrent

Если у вас наблюдаются проблемы со скриншотами, переходом по ссылками, скачиванием торрентов - проблемы в блокировщике рекламы AdBlock. #хорошегоДня!


Статистика раздачи
Размер:  293 MB   |    Зарегистрирован:  5 лет   |    .torrent скачан:  9 раз   |   
Раздают:  1  
   
Загрузка...
 
Автор Сообщение

Galfimbul

avatar Galfimbul


Freiheit / Fantasy

Жанр: Pop-rock
Страна-производитель диска: UK
Год издания: 1988
Издатель (лейбл): CBS
Номер по каталогу: 462482 2
Страна: Germany
Аудиокодек: APE (*.ape)
Тип рипа: image+.cue
Битрейт аудио: lossless
Продолжительность: 00:47:03
Источник (релизер): avax
Наличие сканов в содержимом раздачи: нет
Треклист:
01 Keeping The Dream Alive (Single Version) 4:09
02 Kissed You In The Rain 3:45
03 Diana 4:14
04 The Land Of Fantasy 4:51
05 Moonlight 3:10
06 Tears Are A Girl's Best Friend 5:01
07 So Good 4:04
08 Forever And A Day 3:18
09 Poor Little Boy 3:23
10 On The Run To Be Free 4:08
11 Keeping The Dream Alive (Extended Version) 6:33
Exact Audio Copy V1.0 beta 3 from 29. August 2011

EAC extraction logfile from 14. July 2012, 13:57

Freiheit / Fantasy

Used drive : PIONEER BD-RW BDR-206 Adapter: 2 ID: 3

Read mode : SecureUtilize accurate stream : YesDefeat audio cache : YesMake use of C2 pointers : No

Read offset correction : 667Overread into Lead-In and Lead-Out : NoFill up missing offset samples with silence : YesDelete leading and trailing silent blocks : NoNull samples used in CRC calculations : YesUsed interface : Native Win32 interface for Win NT & 2000

Used output format : User Defined EncoderSelected bitrate : 896 kBit/sQuality : HighAdd ID3 tag : NoCommand line compressor : C:\Program Files\FLAC\flac.exeAdditional command line options : -5 -T "Artist=%artist%" -T "Title=%title%" -T "Album=%albumtitle%" -T "Date=%year%" -T "Tracknumber=%tracknr%" -T "Genre=%genre%" %source% -o %dest%

TOC of the extracted CD

Track | Start | Length | Start sector | End sector --------------------------------------------------------- 1 | 0:00.00 | 4:16.25 | 0 | 19224 2 | 4:16.25 | 3:48.12 | 19225 | 36336 3 | 8:04.37 | 4:17.63 | 36337 | 55674 4 | 12:22.25 | 4:55.12 | 55675 | 77811 5 | 17:17.37 | 3:11.00 | 77812 | 92136 6 | 20:28.37 | 4:56.38 | 92137 | 114374 7 | 25:25.00 | 4:08.00 | 114375 | 132974 8 | 29:33.00 | 3:20.00 | 132975 | 147974 9 | 32:53.00 | 3:28.00 | 147975 | 163574 10 | 36:21.00 | 4:08.37 | 163575 | 182211 11 | 40:29.37 | 6:33.40 | 182212 | 211726

Range status and errors

Selected range

Filename I:\=== VINYL RIPS ===\=== EAC===\X FRESH RIP\Freiheit - Fantasy.wav

Peak level 100.0 % Extraction speed 6.8 X Range quality 99.9 % Test CRC 77639FB4 Copy CRC 77639FB4 Copy OK

No errors occurred

AccurateRip summary

Track 1 accurately ripped (confidence 14) [7270CB71] (AR v1)Track 2 accurately ripped (confidence 14) [30A70530] (AR v1)Track 3 accurately ripped (confidence 14) [C8FA81A2] (AR v1)Track 4 accurately ripped (confidence 14) [75173476] (AR v1)Track 5 accurately ripped (confidence 14) [B6AB12C6] (AR v1)Track 6 accurately ripped (confidence 14) [6B47F957] (AR v1)Track 7 accurately ripped (confidence 14) [F8EA04D8] (AR v1)Track 8 accurately ripped (confidence 14) [F62F44AF] (AR v1)Track 9 accurately ripped (confidence 14) [F5B64596] (AR v1)Track 10 accurately ripped (confidence 14) [0E45130B] (AR v1)Track 11 accurately ripped (confidence 14) [650431A6] (AR v1)

All tracks accurately ripped

End of status report

---- CUETools DB Plugin V2.1.3

[CTDB TOCID: jqjVeRx0XyhyMC5TV.PsrXbsNRE-] found, Submit result: jqjVeRx0XyhyMC5TV.PsrXbsNRE- has been confirmed[5b772485] (1/1) Accurately ripped

==== Log checksum 3117DB78617E2EC2883BEA8336C8523DAE384156308B1E7FC160D6DAC1C751FA ====


Трекер:  [ 11-Ноя-2012 14:58 ]

  

Скачать .torrent

Размер .torrent файла 12 KB


Размер: 293 MB
Хэш (hash) релиза: e4219be1a187c6000203aae4945c3e7b136f2074

Еще никто не оставлял запись к записи скачать торрент Freiheit - Fantasy - 1988, APE . Будь первым!

!Обратная связь