Скачать через торрент музыку Freiheit - Romancing In The Dark - 1987, APE бесплатно без регистрации torrent

Если у вас наблюдаются проблемы со скриншотами, переходом по ссылками, скачиванием торрентов - проблемы в блокировщике рекламы AdBlock. #хорошегоДня!


Статистика раздачи
Размер:  259 MB   |    Зарегистрирован:  4 года 9 месяцев   |    .torrent скачан:  6 раз   |   
Раздают:  1  
   
Загрузка...
 
Автор Сообщение

Galfimbul

avatar Galfimbul


Freiheit / Romancing In The Dark

Жанр: Pop-rock
Страна-производитель диска: Austria
Год издания: 1987
Издатель (лейбл): CBS
Номер по каталогу: 450 918 2
Страна: Germany
Аудиокодек: APE (*.ape)
Тип рипа: image+.cue
Битрейт аудио: lossless
Продолжительность: 00:39:22
Источник (релизер): avax
Наличие сканов в содержимом раздачи: нет
Треклист:
1 Every Time 4:03
2 Romancing In The Dark 4:46
3 Play It Cool 3:39
4 When I Dance With You 7:52
5 Back To The Sunshine 3:24
6 Baby It's You 3:32
7 Hide Away 4:57
8 Oh Baby 3:21
9 When Lovers Cry 3:37
Exact Audio Copy V1.0 beta 3 from 29. August 2011

EAC extraction logfile from 26. June 2012, 16:46

Freiheit / Freiheit

Used drive : PIONEER BD-RW BDR-206 Adapter: 2 ID: 3

Read mode : SecureUtilize accurate stream : YesDefeat audio cache : YesMake use of C2 pointers : No

Read offset correction : 667Overread into Lead-In and Lead-Out : NoFill up missing offset samples with silence : YesDelete leading and trailing silent blocks : NoNull samples used in CRC calculations : YesUsed interface : Native Win32 interface for Win NT & 2000

Used output format : User Defined EncoderSelected bitrate : 896 kBit/sQuality : HighAdd ID3 tag : NoCommand line compressor : C:\Program Files\FLAC\flac.exeAdditional command line options : -5 -T "Artist=%artist%" -T "Title=%title%" -T "Album=%albumtitle%" -T "Date=%year%" -T "Tracknumber=%tracknr%" -T "Genre=%genre%" %source% -o %dest%

TOC of the extracted CD

Track | Start | Length | Start sector | End sector --------------------------------------------------------- 1 | 0:00.00 | 4:04.37 | 0 | 18336 2 | 4:04.37 | 4:47.38 | 18337 | 39899 3 | 8:52.00 | 3:40.25 | 39900 | 56424 4 | 12:32.25 | 7:53.12 | 56425 | 91911 5 | 20:25.37 | 3:25.38 | 91912 | 107324 6 | 23:51.00 | 3:34.00 | 107325 | 123374 7 | 27:25.00 | 4:58.00 | 123375 | 145724 8 | 32:23.00 | 3:22.37 | 145725 | 160911 9 | 35:45.37 | 3:36.38 | 160912 | 177149

Range status and errors

Selected range

Filename I:\=== VINYL RIPS ===\=== EAC===\X FRESH RIP\Freiheit - Romancing In The Dark.wav

Peak level 95.5 % Extraction speed 6.6 X Range quality 100.0 % Test CRC BA90905D Copy CRC BA90905D Copy OK

No errors occurred

AccurateRip summary

Track 1 accurately ripped (confidence 6) [BDCB93D1] (AR v1)Track 2 accurately ripped (confidence 6) [4F1DF383] (AR v1)Track 3 accurately ripped (confidence 6) [5881CE87] (AR v1)Track 4 accurately ripped (confidence 6) [0401D3C7] (AR v1)Track 5 accurately ripped (confidence 6) [62B0D307] (AR v1)Track 6 accurately ripped (confidence 6) [F91BB365] (AR v1)Track 7 accurately ripped (confidence 6) [D850CB49] (AR v1)Track 8 accurately ripped (confidence 6) [B0BB22E3] (AR v1)Track 9 accurately ripped (confidence 6) [E5C8714D] (AR v1)

All tracks accurately ripped

End of status report

---- CUETools DB Plugin V2.1.3

[CTDB TOCID: O63oqLeJ9Nf4mLREHvFvLkKHg5I-] database access error: Timeout für Vorgang überschritten

==== Log checksum 5C6EB03047D46A2E94C58C2199D2CFD2EC3EA003C22743C5F042370A6C82D6F8 ====


Трекер:  [ 11-Ноя-2012 14:58 ]

  

Скачать .torrent

Размер .torrent файла 11 KB


Размер: 259 MB
Хэш (hash) релиза: d7d87baad922eaadc5246b5ca9830834fefb71e2

Еще никто не оставлял запись к записи скачать торрент Freiheit - Romancing In The Dark - 1987, APE . Будь первым!

!Обратная связь