Скачать через торрент музыку Trans-Siberian Orchestra - Dreams Of Fireflies бесплатно без регистрации torrent

Если у вас наблюдаются проблемы со скриншотами, переходом по ссылками, скачиванием торрентов - проблемы в блокировщике рекламы AdBlock. #хорошегоДня!


Статистика раздачи
Размер:  175 MB   |    Зарегистрирован:  4 года 9 месяцев   |    .torrent скачан:  28 раз   |   
Раздают:  1  
   
Загрузка...
 
Автор Сообщение

Galfimbul

avatar Galfimbul


Trans-Siberian Orchestra

Dreams of Fireflies
(On a Christmas Night)

Жанр: Progressive Rock
Страна-производитель диска: USA
Год издания: 2012
Аудиокодек: FLAC (*.flac)
Тип рипа: image+.cue
Битрейт аудио: lossless
Продолжительность: 15:29
Источник (релизер): ©СЁРФ-Маrаtones aka izia1956
Наличие сканов в содержимом раздачи: да



01. Winter Palace (3:39)
02. Dreams Of Fireflies (On a Christmas Night) (2:30)
03. I Had A Memory (3:00)
04. Someday (3:43)
05. Time You Should Be Sleeping (2:36)

Exact Audio Copy V0.99 prebeta 5 from 4. May 2009

Отчёт EAC об извлечении, выполненном 31. октября 2012, 20:10

Trans-Siberian Orchestra / Dreams Of Fireflies (On A Christmas Night)

Дисковод: PLEXTOR DVDR PX-880SA Adapter: 1 ID: 0

Режим чтения : ДостоверностьИспользование точного потока : ДаОтключение кэша аудио : ДаИспользование указателей C2 : Нет

Коррекция смещения при чтении : 6Способность читать области Lead-in и Lead-out : НетЗаполнение пропущенных сэмплов тишиной : ДаУдаление блоков с тишиной в начале и конце : НетПри вычислениях CRC использовались нулевые сэмплы : ДаИнтерфейс : Установленный внешний ASPI-интерфейс

Выходной формат : Пользовательский кодировщикВыбранный битрейт : 1024 kBit/sКачество : ВысокийДобавление ID3-тэга : НетУтилита сжатия : C:\Program Files\Exact Audio Copy\FLAC\FLAC.EXEДополнительные параметры : -6 -V -T "ARTIST=%a" -T "TITLE=%t" -T "ALBUM=%g" -T "DATE=%y" -T "TRACKNUMBER=%n" -T "GENRE=%m" -T "COMMENT=%e" %s -o %d

TOC извлечённого CD

Трек | Старт | Длительность | Начальный сектор | Конечный сектор --------------------------------------------------------------------- 1 | 0:00.00 | 3:39.48 | 0 | 16472 2 | 3:39.48 | 2:30.26 | 16473 | 27748 3 | 6:09.74 | 3:00.12 | 27749 | 41260 4 | 9:10.11 | 3:43.42 | 41261 | 58027 5 | 12:53.53 | 2:36.12 | 58028 | 69739

Характеристики диапазона извлечения и сообщения об ошибках

Выбранный диапазон

Имя файла F:\BitComet\Trans-Siberian Orchestra - Dreams Of Fireflies (On A Christmas Night)(2012)\Trans-Siberian Orchestra - Dreams Of Fireflies (On A Christmas Night).wav

Пиковый уровень 100.0 % Качество диапазона 100.0 % CRC теста 9897C867 CRC копии 9897C867 Копирование... OK

Ошибок не произошло

AccurateRip: сводка

Трек 1 нет в базе данныхТрек 2 нет в базе данныхТрек 3 нет в базе данныхТрек 4 нет в базе данныхТрек 5 нет в базе данных

Ни одного трека нет в базе AccurateRip

Конец отчёта


Трекер:  [ 11-Ноя-2012 14:53 ]

  

Скачать .torrent

Размер .torrent файла 15 KB


Размер: 175 MB
Хэш (hash) релиза: 61028c0c6049402dbaf11f5c87beaf861e5d5596

Торренты, похожие на Trans-Siberian Orchestra - Dreams Of Fireflies скачать торрент

Форум Название Автор Размер S L Добавлен
Зарубежный Rock ·· (Symphonic Rock/Neo-Classical) Trans-Siberian Orchestra - Dreams Of Fireflies (On A Christmas Night) [EP] - 2012, MP3, 320 kbps Galfimbul 3979124238 MB 0 0 1352121000

16:10

5-Ноя-12

Еще никто не оставлял запись к записи скачать торрент Trans-Siberian Orchestra - Dreams Of Fireflies . Будь первым!

!Обратная связь