Скачать через торрент музыку K.West - First Invasion - 1983 бесплатно без регистрации torrent

Если у вас наблюдаются проблемы со скриншотами, переходом по ссылками, скачиванием торрентов - проблемы в блокировщике рекламы AdBlock. #хорошегоДня!


Статистика раздачи
Размер:  274 MB   |    Зарегистрирован:  5 лет   |    .torrent скачан:  14 раз   |   
Раздают:  1  
   
Загрузка...
 
Автор Сообщение

Galfimbul

avatar Galfimbul


K.West / First Invasion

Жанр: AOR/Melodic Rock
Страна-производитель диска: Germany
Год издания: 1983 (Reissued 1994)
Издатель (лейбл): Mausoleum
Номер по каталогу: 704116.2
Аудиокодек: FLAC (*.flac)
Тип рипа: image+.cue
Битрейт аудио: lossless
Продолжительность: 38:45
Источник (релизер): slayer19
Наличие сканов в содержимом раздачи: да (All Scans)
Треклист:
01. Running With The Night (4:04)
02. Do It Right Now (3:58)
03. Never Again (3:54)
04. Dreamer (3:56)
05. Away From You (3:43)
06. Gimme Some Lovin' (3:12)
07. I'm Just A Loser (3:49)
08. Put You Down (3:26)
09. Bloodsuckers (4:26)
10. Heavy On My Love (4:16)
Exact Audio Copy V1.0 beta 3 from 29. August 2011

Отчёт EAC об извлечении, выполненном 31. октября 2012, 21:42

K.West / First Invasion

Дисковод: Optiarc DVD RW AD-7200A Adapter: 0 ID: 0

Режим чтения : ДостоверностьИспользование точного потока : ДаОтключение кэша аудио : ДаИспользование указателей C2 : Нет

Коррекция смещения при чтении : 48Способность читать области Lead-in и Lead-out : НетЗаполнение пропущенных сэмплов тишиной : ДаУдаление блоков с тишиной в начале и конце : НетПри вычислениях CRC использовались нулевые сэмплы : ДаИнтерфейс : Встроенный Win32-интерфейс для Win NT/2000

Выходной формат : Пользовательский кодировщикВыбранный битрейт : 128 kBit/sКачество : ВысокийДобавление ID3-тега : НетУтилита сжатия : C:\Program Files\FLAC\FLAC frontend.exe

TOC извлечённого CD

Трек | Старт | Длительность | Начальный сектор | Конечный сектор --------------------------------------------------------------------- 1 | 0:00.00 | 4:03.65 | 0 | 18289 2 | 4:03.65 | 3:57.52 | 18290 | 36116 3 | 8:01.42 | 3:53.68 | 36117 | 53659 4 | 11:55.35 | 3:56.10 | 53660 | 71369 5 | 15:51.45 | 3:43.25 | 71370 | 88119 6 | 19:34.70 | 3:11.57 | 88120 | 102501 7 | 22:46.52 | 3:49.25 | 102502 | 119701 8 | 26:36.02 | 3:26.33 | 119702 | 135184 9 | 30:02.35 | 4:26.00 | 135185 | 155134 10 | 34:28.35 | 4:16.12 | 155135 | 174346

Характеристики диапазона извлечения и сообщения об ошибках

Выбранный диапазон

Имя файла D:\МОИ ФАЙЛЫ\LOSSLESS\slayer19\K.West - First Invasion.wav

Пиковый уровень 98.0 % Скорость извлечения 3.6 X Качество диапазона 99.9 % CRC теста B2507146 CRC копии B2507146 Копирование... OK

Ошибок не произошло

AccurateRip: сводка

Трек 1 отсутствует в базе данныхТрек 2 отсутствует в базе данныхТрек 3 отсутствует в базе данныхТрек 4 отсутствует в базе данныхТрек 5 отсутствует в базе данныхТрек 6 отсутствует в базе данныхТрек 7 отсутствует в базе данныхТрек 8 отсутствует в базе данныхТрек 9 отсутствует в базе данныхТрек 10 отсутствует в базе данных

Ни одного трека нет в базе AccurateRip

Конец отчёта

---- CUETools DB Plugin V2.1.3

[CTDB TOCID: v6sjBFYwGT.hLc1JrbzVRILtIas-] disk not present in database, Submit result: v6sjBFYwGT.hLc1JrbzVRILtIas- has been uploaded

==== Контрольная сумма отчёта 20F9FA5D68AE86F2335E377BE3AA44CEF6BD4B342F1B5F75C8EB54CB1C6C8D40 ====


Трекер:  [ 11-Ноя-2012 14:53 ]

  

Скачать .torrent

Размер .torrent файла 11 KB


Размер: 274 MB
Хэш (hash) релиза: 52ff6b71a1a974496fb9efedd2115e5002fda2fd

Еще никто не оставлял запись к записи скачать торрент K.West - First Invasion - 1983 . Будь первым!

!Обратная связь