Скачать через торрент музыку The Ark - Calleth You Cometh I бесплатно без регистрации torrent

Если у вас наблюдаются проблемы со скриншотами, переходом по ссылками, скачиванием торрентов - проблемы в блокировщике рекламы AdBlock. #хорошегоДня!


Статистика раздачи
Размер:  92 MB   |    Зарегистрирован:  5 лет   |    .torrent скачан:  34 раза   |   
Раздают:  1  
   
Загрузка...
 
Автор Сообщение

Galfimbul

avatar Galfimbul


The Ark / Calleth You Cometh I (Single)

Жанр: Pop Rock, Glam Rock, New Wave
Страна-производитель диска: Sweden
Год издания: 2002
Издатель (лейбл): Virgin
Номер по каталогу: 724354 66702 2
Страна: Sweden
Аудиокодек: FLAC (*.flac)
Тип рипа: image+.cue
Битрейт аудио: lossless
Продолжительность: 00:11:46
Источник (релизер): CD
Наличие сканов в содержимом раздачи: да
Треклист:
01. Calleth You Cometh I - 03:56
02. Power To Change - 04:38 (Non Album Track)
03. The Glad Yeah - 03:11 (Non Album Track)
Exact Audio Copy V1.0 beta 3 from 29. August 2011

Отчёт EAC об извлечении, выполненном 16. марта 2012, 8:31

The Ark / Calleth You Cometh I (Single)

Дисковод: PIONEER DVD-RW DVR-218L Adapter: 0 ID: 1

Режим чтения : ДостоверностьИспользование точного потока : ДаОтключение кэша аудио : ДаИспользование указателей C2 : Нет

Коррекция смещения при чтении : 6Способность читать области Lead-in и Lead-out : НетЗаполнение пропущенных сэмплов тишиной : ДаУдаление блоков с тишиной в начале и конце : НетПри вычислениях CRC использовались нулевые сэмплы : ДаИнтерфейс : Встроенный Win32-интерфейс для Win NT/2000

Выходной формат : Пользовательский кодировщикВыбранный битрейт : 896 kBit/sКачество : ВысокийДобавление ID3-тега : ДаУтилита сжатия : C:\Program Files\Exact Audio Copy\FLAC\FLAC.EXEДополнительные параметры : -6 -V -T "ARTIST=%artist%" -T "TITLE=%title%" -T "ALBUM=%albumtitle%" -T "DATE=%year%" -T "TRACKNUMBER=%tracknr%" -T "GENRE=%genre%" -T "COMMENT=%comment%" -T "BAND=%albuminterpret%" -T "ALBUMARTIST=%albuminterpret%" -T "COMPOSER=%composer%" %haslyrics%--tag-from-file=LYRICS="%lyricsfile%"%haslyrics% -T "DISCNUMBER=%cdnumber%" -T "TOTALDISCS=%totalcds%" -T "TOTALTRACKS=%numtracks%" %hascover%--picture="%coverfile%"%hascover% %source% -o %dest%

TOC извлечённого CD

Трек | Старт | Длительность | Начальный сектор | Конечный сектор --------------------------------------------------------------------- 1 | 0:00.00 | 3:56.40 | 0 | 17739 2 | 3:56.40 | 4:38.72 | 17740 | 38661 3 | 8:35.37 | 3:11.27 | 38662 | 53013

Характеристики диапазона извлечения и сообщения об ошибках

Выбранный диапазон

Имя файла C:\Users\Александр\Desktop\Torrent Downloads\The Ark\The Ark Single 2002\The Ark - Calleth You Cometh I (Single).wav

Пиковый уровень 98.9 % Скорость извлечения 1.3 X Качество диапазона 99.9 % CRC теста F55F7C98 CRC копии F55F7C98 Копирование... OK

Ошибок не произошло

AccurateRip: сводка

Трек 1 : извлечено точно (доверие 1) [788CC6DF] (AR v1)Трек 2 : извлечено точно (доверие 1) [24658E07] (AR v1)Трек 3 : извлечено точно (доверие 1) [BEFB88CB] (AR v1)

Все треки извлечены точно

Конец отчёта

---- CUETools DB Plugin V2.1.3

[CTDB TOCID: WNQnGnJOB1CEnJIB3cfMhHE.Vy4-] disk not present in database, Submit result: WNQnGnJOB1CEnJIB3cfMhHE.Vy4- has been uploaded


Трекер:  [ 11-Ноя-2012 14:53 ]

  

Скачать .torrent

Размер .torrent файла 15 KB


Размер: 92 MB
Хэш (hash) релиза: dba25e28e330e90ab1f80f76e99542d41c9351da

Еще никто не оставлял запись к записи скачать торрент The Ark - Calleth You Cometh I . Будь первым!

!Обратная связь