Скачать через торрент музыку El Canto Del Loco - El Canto Del Loco - 2000, FLAC бесплатно без регистрации torrent

Если у вас наблюдаются проблемы со скриншотами, переходом по ссылками, скачиванием торрентов - проблемы в блокировщике рекламы AdBlock. #хорошегоДня!


Статистика раздачи
Размер:  396 MB   |    Зарегистрирован:  4 года 9 месяцев   |    .torrent скачан:  6 раз   |   
Раздают:  1  
   
Загрузка...
 
Автор Сообщение

Galfimbul

avatar Galfimbul


El Canto Del Loco / El Canto Del Loco

Жанр: Pop/Rock
Страна-производитель диска: Spain
Год издания: 2000
Издатель (лейбл): BMG Music Spain
Номер по каталогу: 74321760122
Страна: Spain
Аудиокодек: FLAC (*.flac)
Тип рипа: image+.cue
Битрейт аудио: lossless
Продолжительность: 41:45
Источник (релизер): Родной диск
Наличие сканов в содержимом раздачи: да
Треклист:
Релиз от


1. Pequeñita
2. Llueve en mí
3. Eres un canalla
4. Pasión
5. Traidora
6. He vuelto a caer
7. Sin mitad
8. No quiero nada
9. El agricultor
10. Y si el miedo
11. Busco la vida
12. Vivir así es morir de amor
Exact Audio Copy V1.0 beta 3 from 29. August 2011

Отчёт EAC об извлечении, выполненном 20. сентября 2012, 11:31

El Canto Del Loco / El Canto Del Loco

Дисковод: Optiarc DVD RW AD-7283S Adapter: 5 ID: 0

Режим чтения : ДостоверностьИспользование точного потока : ДаОтключение кэша аудио : ДаИспользование указателей C2 : Нет

Коррекция смещения при чтении : 48Способность читать области Lead-in и Lead-out : НетЗаполнение пропущенных сэмплов тишиной : ДаУдаление блоков с тишиной в начале и конце : НетПри вычислениях CRC использовались нулевые сэмплы : ДаИнтерфейс : Встроенный Win32-интерфейс для Win NT/2000

Выходной формат : Пользовательский кодировщикВыбранный битрейт : 768 kBit/sКачество : ВысокийДобавление ID3-тега : НетУтилита сжатия : C:\Program Files (x86)\Exact Audio Copy\FLAC\FLAC.EXEДополнительные параметры : -6 -V -T "ARTIST=%artist%" -T "TITLE=%title%" -T "ALBUM=%albumtitle%" -T "DATE=%year%" -T "TRACKNUMBER=%tracknr%" -T "GENRE=%genre%" -T "COMMENT=%comment%" -T "BAND=%albuminterpret%" -T "ALBUMARTIST=%albuminterpret%" -T "COMPOSER=%composer%" %haslyrics%--tag-from-file=LYRICS="%lyricsfile%"%haslyrics% -T "DISCNUMBER=%cdnumber%" -T "TOTALDISCS=%totalcds%" -T "TOTALTRACKS=%numtracks%" %hascover%--picture="%coverfile%"%hascover% %source% -o %dest%

TOC извлечённого CD

Трек | Старт | Длительность | Начальный сектор | Конечный сектор --------------------------------------------------------------------- 1 | 0:00.00 | 2:27.70 | 0 | 11094 2 | 2:27.70 | 3:54.64 | 11095 | 28708 3 | 6:22.59 | 3:03.66 | 28709 | 42499 4 | 9:26.50 | 3:06.28 | 42500 | 56477 5 | 12:33.03 | 2:23.72 | 56478 | 67274 6 | 14:57.00 | 3:44.24 | 67275 | 84098 7 | 18:41.24 | 3:50.27 | 84099 | 101375 8 | 22:31.51 | 3:40.71 | 101376 | 117946 9 | 26:12.47 | 4:23.68 | 117947 | 137739 10 | 30:36.40 | 3:47.34 | 137740 | 154798 11 | 34:23.74 | 3:57.39 | 154799 | 172612 12 | 38:21.38 | 3:23.67 | 172613 | 187904

Характеристики диапазона извлечения и сообщения об ошибках

Выбранный диапазон

Имя файла E:\docs\Моя музыка\lossless\El Canto Del Loco - El Canto Del Loco\El Canto Del Loco - El Canto Del Loco.wav

Пиковый уровень 100.0 % Скорость извлечения 3.7 X Качество диапазона 100.0 % CRC теста 7CF542B7 CRC копии 7CF542B7 Копирование... OK

Ошибок не произошло

AccurateRip: сводка

Трек 1 : извлечено точно (доверие 2) [B7534330] (AR v1)Трек 2 : извлечено точно (доверие 2) [F99B92C1] (AR v1)Трек 3 : извлечено точно (доверие 2) [0887A478] (AR v1)Трек 4 : извлечено точно (доверие 2) [90A09C75] (AR v1)Трек 5 : извлечено точно (доверие 2) [C98CDBBC] (AR v1)Трек 6 : извлечено точно (доверие 2) [CCD4B241] (AR v1)Трек 7 : извлечено точно (доверие 2) [67AF9E1D] (AR v1)Трек 8 : извлечено точно (доверие 2) [128D4A67] (AR v1)Трек 9 : извлечено точно (доверие 2) [223A764F] (AR v1)Трек 10 : извлечено точно (доверие 2) [5A6F4BC3] (AR v1)Трек 11 : извлечено точно (доверие 2) [4C779EC0] (AR v1)Трек 12 : извлечено точно (доверие 2) [E1F49811] (AR v1)

Все треки извлечены точно

Конец отчёта


Трекер:  [ 11-Ноя-2012 14:53 ]

  

Скачать .torrent

Размер .torrent файла 17 KB


Размер: 396 MB
Хэш (hash) релиза: b8e6ccab54c8fdf107ae80405c88ebf6458c11ac

Еще никто не оставлял запись к записи скачать торрент El Canto Del Loco - El Canto Del Loco - 2000, FLAC . Будь первым!

!Обратная связь