Скачать через торрент музыку Bounce The Ocean - Bounce The Ocean - 1991, FLAC бесплатно без регистрации torrent

Если у вас наблюдаются проблемы со скриншотами, переходом по ссылками, скачиванием торрентов - проблемы в блокировщике рекламы AdBlock. #хорошегоДня!


Статистика раздачи
Размер:  324 MB   |    Зарегистрирован:  5 лет   |    .torrent скачан:  10 раз   |   
Раздают:  1  
   
Загрузка...
 
Автор Сообщение

Galfimbul

avatar Galfimbul


Bounce The Ocean / Bounce The Ocean

Жанр: AOR
Страна-производитель диска: USA
Год издания: 1991
Издатель (лейбл): Private Music
Номер по каталогу: 01005-82080-2
Страна: USA
Аудиокодек: FLAC (*.flac)
Тип рипа: image+.cue
Битрейт аудио: lossless
Продолжительность: 00:41:18
Источник (релизер): собственный CD
Наличие сканов в содержимом раздачи: да
Треклист:
1. Throw It All Away
2. So We Collide
3. Wasting My Time
4. Letting Go
5. Gloria
6. Crooked Heart
7. Dry Your Eyes
8. When She Turned Away
9. Scientists
10. It Just Gets Better

Единственный альбом группы, приобретался на аукционе, к сожалению диск прибыл с небольшой дырочкой в заднике буклета. Информации по альбому минимум, например номер по каталогу указал тот, что был на диске, а не тот, что указан на Discogs, так как такого номера я не нашел на буклете и диске. Данная раздача исключительно для ознакомления, если Вам понравился альбом,купите оригинальный CD.
Exact Audio Copy V1.0 beta 3 from 29. August 2011

Отчёт EAC об извлечении, выполненном 26. октября 2012, 20:38

Bounce the Ocean / Bounce the Ocean

Дисковод: TSSTcorpCDDVDW SH-S202J Adapter: 0 ID: 0

Режим чтения : ДостоверностьИспользование точного потока : ДаОтключение кэша аудио : ДаИспользование указателей C2 : Нет

Коррекция смещения при чтении : 6Способность читать области Lead-in и Lead-out : НетЗаполнение пропущенных сэмплов тишиной : ДаУдаление блоков с тишиной в начале и конце : НетПри вычислениях CRC использовались нулевые сэмплы : ДаИнтерфейс : Встроенный Win32-интерфейс для Win NT/2000

Выходной формат : Пользовательский кодировщикВыбранный битрейт : 128 kBit/sКачество : ВысокийДобавление ID3-тега : НетУтилита сжатия : D:\программа\Exact Audio Copy\FLAC\FLAC.EXEДополнительные параметры : -V -8 -T "Date=%year%" -T "Genre=%genre%" %source%

TOC извлечённого CD

Трек | Старт | Длительность | Начальный сектор | Конечный сектор --------------------------------------------------------------------- 1 | 0:00.00 | 3:18.55 | 0 | 14904 2 | 3:18.55 | 4:10.70 | 14905 | 33724 3 | 7:29.50 | 4:26.40 | 33725 | 53714 4 | 11:56.15 | 4:14.03 | 53715 | 72767 5 | 16:10.18 | 4:36.37 | 72768 | 93504 6 | 20:46.55 | 4:35.15 | 93505 | 114144 7 | 25:21.70 | 4:05.03 | 114145 | 132522 8 | 29:26.73 | 3:22.42 | 132523 | 147714 9 | 32:49.40 | 4:21.43 | 147715 | 167332 10 | 37:11.08 | 4:09.02 | 167333 | 186009

Характеристики диапазона извлечения и сообщения об ошибках

Выбранный диапазон

Имя файла D:\музыка\Lossless\Dimetal\Bounce the Ocean\Bounce the Ocean - Bounce the Ocean.wav

Пиковый уровень 100.0 % Скорость извлечения 6.7 X Качество диапазона 100.0 % CRC теста 634E2A10 CRC копии 634E2A10 Копирование... OK

Ошибок не произошло

AccurateRip: сводка

Трек 1 : извлечено точно (доверие 1) [DD3C1E9B] (AR v1)Трек 2 : извлечено точно (доверие 1) [9D7D1D3C] (AR v1)Трек 3 : извлечено точно (доверие 1) [199DB29C] (AR v1)Трек 4 : извлечено точно (доверие 1) [C17F83B1] (AR v1)Трек 5 : извлечено точно (доверие 1) [5B7DAB35] (AR v1)Трек 6 : извлечено точно (доверие 1) [A182DFFD] (AR v1)Трек 7 : извлечено точно (доверие 1) [4EA9A861] (AR v1)Трек 8 : извлечено точно (доверие 1) [7E09C5BE] (AR v1)Трек 9 : извлечено точно (доверие 1) [DA474076] (AR v1)Трек 10 : извлечено точно (доверие 1) [46AE4478] (AR v1)

Все треки извлечены точно

Конец отчёта

==== Контрольная сумма отчёта FDC5BF8BA48346B4792D7E5C4CD71FA0ECF54CC6D06FF42ACF00C47DF0AB3941 ====
Bounce The Ocean:
Dave Boroff -saxophone
Andy Kravitz - drums, percussion
Frank Bry - keyboard programming, bass, engineer, drum samples
Hawk Bjorn - bass programming, piano, keyboards, synthesizer bass
Michael Thompson - guitar
Greg Leisz slide - guitar
Steve Berlin - bells, triangle, drum programming, percussion, sax
Michael O'martian - keyboards, organ, synthesizer, bass, piano
John Utter - guitar, vocals, background vocals


Трекер:  [ 11-Ноя-2012 14:53 ]

  

Скачать .torrent

Размер .torrent файла 13 KB


Размер: 324 MB
Хэш (hash) релиза: deeadcd1015ec8a020565bb2b4577bdcaa0543f9

Еще никто не оставлял запись к записи скачать торрент Bounce The Ocean - Bounce The Ocean - 1991, FLAC . Будь первым!

!Обратная связь